1. Willkommen beim WoH Board. Um Beiträge zu verfassen, musst du dich kostenlos registrieren.

[Biete] Demon Slayer: Kimetsu no Yaiba [Jap-Dub][Ger-Sub][720p|1080p][02/12][WebRip] - [email protected]

Dieses Thema im Forum "Ger Sub" wurde erstellt von [email protected], 12 April 2019.

  1. [email protected] Otakuholic

    Ta@
    Kimetsu no Yaiba
    Demon Slayer: Kimetsu no Yaiba
    Blade of Demon Destruction

    [​IMG]
    [​IMG]

    Schon seit längst vergangenen Zeiten gibt es die Legende eines menschenfressenden Dämons, der im Wald sein Unwesen treibt. Aufgrund dessen trauen sich die ortsansässigen Bewohner nicht mehr bei Nacht hinaus. Die Legende besagt weiterhin, dass ein Dämonentöter durch das Land zieht, um solch blutdurstige Dämonen zu jagen. Für den jungen Tanjirou wird das bald zur Realität. Seit dem Tod seines Vaters hat Tanjirou es sich zur Aufgabe gemacht, seine Familie über Wasser zu halten. Trotz des harten Lebens haben sie es geschafft, glücklich zu sein. Doch diese wohlige Wärme der Glückseligkeit wurde mit einem Mal zerstört, als Tanjirou seine Familie abgeschlachtet vorfindet. Einzig und allein seine Schwester Nezuko hat überlebt, obgleich sie sich in einen Dämonen verwandelt hat. Überraschenderweise zeigt Nezuko noch Zeichen menschlicher Emotionen und Gedanken. So beginnt Tanjirous Kampf gegen die Dämonen, um seine Schwester wieder zu einem Menschen zu machen.

    Folgen: 2/12
    Größe pro Folge: ~750 MB/~2935 MB
    Folgendauer: ~24 Min
    Releaser: [email protected]
    Art: Lizenzrelease
    Sprache: Japanisch
    Untertitel: Deutsch
    Jahr: 2019
    Genres: Abenteuer, Action, Drama, Fantasy
    Auflösung: 1280x720/1920x1080
    Format: MKV
    Quelle: WebRip
    Videocodec: x264
    Farbtiefe: 8Bit
    Audiocodec: AAC
    Publisher: Wakanim
    Hoster: Share-Online

    [​IMG]
    Code:
    General Complete name : [[email protected]]Demon_Slayer_01_[Web,720p,AAC].mkv Format : Matroska Format version : Version 4 File size : 753 MiB Duration : 23 min 39 s Overall bit rate : 4 449 kb/s Encoded date : UTC 2019-04-07 22:29:05 Writing application : mkvmerge v10.0.0 ('To Drown In You') 64bit Writing library : libebml v1.3.4 + libmatroska v1.4.5 Attachments : font.ttf Video ID : 1 Format : AVC Format/Info : Advanced Video Codec Format profile : [email protected] Format settings : CABAC / 9 Ref Frames Format settings, CABAC : Yes Format settings, RefFrames : 9 frames Codec ID : V_MPEG4/ISO/AVC Duration : 23 min 39 s Bit rate : 4 256 kb/s Width : 1 280 pixels Height : 720 pixels Display aspect ratio : 16:9 Frame rate mode : Constant Frame rate : 23.976 (24000/1001) FPS Color space : YUV Chroma subsampling : 4:2:0 Bit depth : 8 bits Scan type : Progressive Bits/(Pixel*Frame) : 0.193 Stream size : 720 MiB (96%) Writing library : x264 core 155 r2901 7d0ff22 Encoding settings : cabac=1 / ref=9 / deblock=1:1:1 / analyse=0x3:0x133 / me=umh / subme=10 / psy=1 / psy_rd=0.40:0.00 / mixed_ref=1 / me_range=24 / chroma_me=1 / trellis=2 / 8x8dct=1 / cqm=0 / deadzone=21,11 / fast_pskip=1 / chroma_qp_offset=-2 / threads=22 / lookahead_threads=5 / sliced_threads=0 / nr=0 / decimate=1 / interlaced=0 / bluray_compat=0 / constrained_intra=0 / bframes=10 / b_pyramid=2 / b_adapt=2 / b_bias=0 / direct=3 / weightb=1 / open_gop=0 / weightp=2 / keyint=250 / keyint_min=23 / scenecut=40 / intra_refresh=0 / rc_lookahead=60 / rc=crf / mbtree=1 / crf=14.0 / qcomp=0.60 / qpmin=0 / qpmax=69 / qpstep=4 / ip_ratio=1.40 / aq=1:0.60 Default : Yes Forced : No Audio ID : 2 Format : AAC LC Format/Info : Advanced Audio Codec Low Complexity Codec ID : A_AAC-2 Duration : 23 min 39 s Bit rate : 192 kb/s Channel(s) : 2 channels Channel layout : L R Sampling rate : 48.0 kHz Frame rate : 46.875 FPS (1024 SPF) Compression mode : Lossy Delay relative to video : -21 ms Stream size : 32.2 MiB (4%) Default : Yes Forced : No ​
    Code:
    General Complete name : [[email protected]]Demon_Slayer_01_[Web,1080p,AAC].mkv Format : Matroska Format version : Version 4 File size : 2.86 GiB Duration : 23 min 39 s Overall bit rate : 17.3 Mb/s Encoded date : UTC 2019-04-07 22:29:24 Writing application : mkvmerge v10.0.0 ('To Drown In You') 64bit Writing library : libebml v1.3.4 + libmatroska v1.4.5 Attachments : font.ttf Video ID : 1 Format : AVC Format/Info : Advanced Video Codec Format profile : [email protected] Format settings : CABAC / 4 Ref Frames Format settings, CABAC : Yes Format settings, RefFrames : 4 frames Codec ID : V_MPEG4/ISO/AVC Duration : 23 min 39 s Bit rate : 17.1 Mb/s Width : 1 920 pixels Height : 1 080 pixels Display aspect ratio : 16:9 Frame rate mode : Constant Frame rate : 23.976 (24000/1001) FPS Color space : YUV Chroma subsampling : 4:2:0 Bit depth : 8 bits Scan type : Progressive Bits/(Pixel*Frame) : 0.345 Stream size : 2.83 GiB (99%) Writing library : x264 core 155 r2901 7d0ff22 Encoding settings : cabac=1 / ref=4 / deblock=1:1:1 / analyse=0x3:0x133 / me=umh / subme=10 / psy=1 / psy_rd=0.40:0.00 / mixed_ref=1 / me_range=24 / chroma_me=1 / trellis=2 / 8x8dct=1 / cqm=0 / deadzone=21,11 / fast_pskip=1 / chroma_qp_offset=-2 / threads=24 / lookahead_threads=6 / sliced_threads=0 / nr=0 / decimate=1 / interlaced=0 / bluray_compat=0 / constrained_intra=0 / bframes=10 / b_pyramid=2 / b_adapt=2 / b_bias=0 / direct=3 / weightb=1 / open_gop=0 / weightp=2 / keyint=250 / keyint_min=23 / scenecut=40 / intra_refresh=0 / rc_lookahead=60 / rc=crf / mbtree=1 / crf=12.0 / qcomp=0.60 / qpmin=0 / qpmax=69 / qpstep=4 / ip_ratio=1.40 / aq=1:0.60 Default : Yes Forced : No Audio ID : 2 Format : AAC LC Format/Info : Advanced Audio Codec Low Complexity Codec ID : A_AAC-2 Duration : 23 min 39 s Bit rate : 192 kb/s Channel(s) : 2 channels Channel layout : L R Sampling rate : 48.0 kHz Frame rate : 46.875 FPS (1024 SPF) Compression mode : Lossy Delay relative to video : -21 ms Stream size : 32.2 MiB (1%) Default : Yes Forced : No ​

    Anmerkung:
    Die Untertitel sind im Video eingebrannt.

    720p:[​IMG]1080p:[​IMG]

    Hidden Content:
    **Versteckter Inhalt: Du musst 'Gefällt mir' klicken, bevor du den Inhalt sehen kannst.**
     
    Zuletzt bearbeitet: 17 April 2019
    Tags:
Die Seite wird geladen...