1. Willkommen beim WoH Board. Um Beiträge zu verfassen, musst du dich kostenlos registrieren.

[Biete] Dia no Ace: Second Season [51/51][Jap-Dub][Ger-Sub][720p][HDTV] - L-S

Dieses Thema im Forum "Ger Sub" wurde erstellt von Gott Enel, 19 März 2017.

  1. Gott Enel Phantomdieb

    Gott Enel
    Dia no Ace: Second Season
    Ace of the Diamond: Second Season
    Diamond no Ace: Second Season

    [​IMG]

    Kurzbeschreibung:
    Folgenanzahl: 51/51
    Größe pro Folge: ~330MB
    Folgendauer: ~24min
    Produktionshaus: Madhouse, Production I.G
    Lizenzhaber: Crunchyroll
    Releaser: Lunatic-Studio
    Art: Fansub
    Sprache: Japanisch
    Untertitel: Deutsch (Hard)
    Auflösung: 720p
    Format: MP4
    Quelle: HDTV
    Videocodec: x264
    Farbtiefe: 8bit
    Audiocodec: AAC
    Share-Online: [​IMG]

    Code:
    Format                                   : MPEG-4
    Format profile                           : Base Media
    Codec ID                                 : isom (isom)
    File size                                : 314 MiB
    Duration                                 : 23 min 59 s
    Overall bit rate mode                    : Variable
    Overall bit rate                         : 1 831 kb/s
    Encoded date                             : UTC 2015-04-09 12:40:10
    Tagged date                              : UTC 2015-04-09 12:40:10
    
    Video
    ID                                       : 1
    Format                                   : AVC
    Format/Info                              : Advanced Video Codec
    Format profile                           : [email protected]
    Format settings                          : CABAC / 6 Ref Frames
    Format settings, CABAC                   : Yes
    Format settings, RefFrames               : 6 frames
    Codec ID                                 : avc1
    Codec ID/Info                            : Advanced Video Coding
    Duration                                 : 23 min 59 s
    Bit rate                                 : 1 699 kb/s
    Maximum bit rate                         : 4 892 kb/s
    Width                                    : 1 280 pixels
    Height                                   : 720 pixels
    Display aspect ratio                     : 16:9
    Frame rate mode                          : Constant
    Frame rate                               : 23.976 (24000/1001) FPS
    Color space                              : YUV
    Chroma subsampling                       : 4:2:0
    Bit depth                                : 8 bits
    Scan type                                : Progressive
    Bits/(Pixel*Frame)                       : 0.077
    Stream size                              : 292 MiB (93%)
    Writing library                          : x264 core 142 r2431+42 c69a006 tMod [[email protected] X86_64]
    Encoding settings                        : cabac=1 / ref=6 / deblock=1:0:0 / analyse=0x3:0x133 / me=hex / subme=7 / psy=1 / fade_compensate=0.00 / psy_rd=1.00:0.00 / mixed_ref=1 / me_range=16 / chroma_me=1 / trellis=1 / 8x8dct=1 / cqm=0 / deadzone=21,11 / fast_pskip=1 / chroma_qp_offset=-2 / threads=12 / lookahead_threads=2 / sliced_threads=0 / nr=0 / decimate=0 / interlaced=0 / bluray_compat=0 / constrained_intra=0 / fgo=0 / bframes=4 / b_pyramid=2 / b_adapt=1 / b_bias=0 / direct=3 / weightb=1 / open_gop=0 / weightp=2 / keyint=250 / keyint_min=23 / scenecut=40 / intra_refresh=0 / rc_lookahead=40 / rc=crf / mbtree=1 / crf=18.0000 / qcomp=0.60 / qpmin=0:0:0 / qpmax=69:69:69 / qpstep=4 / vbv_maxrate=2560 / vbv_bufsize=5120 / crf_max=0.0 / nal_hrd=none / filler=0 / ip_ratio=1.40 / aq=4:0.80 / aq-sensitivity=10.00 / aq-factor=1.00:1.00:1.00 / aq2=0 / aq3=0
    Encoded date                             : UTC 2015-04-09 12:19:02
    Tagged date                              : UTC 2015-04-09 12:40:12
    Color range                              : Limited
    Color primaries                          : BT.709
    Transfer characteristics                 : BT.709
    Matrix coefficients                      : BT.709
    
    Audio
    ID                                       : 2
    Format                                   : AAC
    Format/Info                              : Advanced Audio Codec
    Format profile                           : LC
    Codec ID                                 : mp4a-40-2
    Duration                                 : 23 min 59 s
    Bit rate mode                            : Variable
    Bit rate                                 : 128 kb/s
    Maximum bit rate                         : 140 kb/s
    Channel(s)                               : 2 channels
    Channel positions                        : Front: L R
    Sampling rate                            : 44.1 kHz
    Frame rate                               : 43.066 FPS (1024 SPF)
    Compression mode                         : Lossy
    Stream size                              : 22.0 MiB (7%)
    Encoded date                             : UTC 2015-04-09 12:40:11
    Tagged date                              : UTC 2015-04-09 12:40:12
    

    Hidden Content:
    **Versteckter Inhalt: Du musst 'Gefällt mir' klicken, bevor du den Inhalt sehen kannst.**
     
    Zuletzt bearbeitet: 13 März 2018
    Tags:
    M3F1St0, boaboa, YAKOMO und 5 anderen gefällt das.
  2. Gott Enel Phantomdieb

    Gott Enel
    Wieder online
     
Die Seite wird geladen...