1. Willkommen beim WoH Board. Um Beiträge zu verfassen, musst du dich kostenlos registrieren.

[Biete] Dragonball - The Movie 3: Son Gokus Erstes Turnier german 1988 DL AC3 Divx - iND

Dieses Thema im Forum "Anime Movies" wurde erstellt von DarkFisch, 13 Juli 2018.

  1. DarkFisch Scriptor

    DarkFisch
    Dragonball - The Movie 3: Son Gokus Erstes Turnier german 1988 DL AC3 Divx - iND

    [​IMG]

    Der Kaiser von Mifan soll ermordet werden. Sein engster Berater, der Herr der Kraniche, will ihn beseitigen lassen und mit Hilfe der sieben Dragonballs die Weltherrschaft an sich reißen. Werden Son-Goku und Krelin die bösen Pläne durchkreuzen können?

    Infos:
    Source: DVD
    Format: DIVX
    Dauer: ~45 min
    Genre: Anime
    Produktionsjahr: 1988
    FSK: 12
    Bitrate: 1 774 kb/s
    Resolution: 720x576 @25fps
    Audio : DE 2.0 - 128 kbps JP 2.0 - 128 kbps
    Größe: 558 MB in 6 Parts je 105MB Unterteilt
    Hoster: Share-Online

    Mediainfo:
    Format : DivX
    File size : 558 MiB
    Duration : 43 min 57 s
    Overall bit rate : 1 775 kb/s

    Video
    ID : 0
    Format : MPEG-4 Visual
    Format settings : BVOP1
    Format settings, BVOP : 1
    Format settings, QPel : No
    Format settings, GMC : No warppoints
    Format settings, Matrix : Default (H.263)
    Muxing mode : Packed bitstream
    Codec ID : DX50
    Codec ID/Hint : DivX 5
    Duration : 43 min 57 s
    Bit rate : 1 501 kb/s
    Nominal bit rate : 4 854 kb/s
    Width : 720 pixels
    Height : 576 pixels
    Display aspect ratio : 4:3
    Frame rate : 25.000 FPS
    Standard : PAL
    Color space : YUV
    Chroma subsampling : 4:2:0
    Bit depth : 8 bits
    Scan type : Progressive
    Compression mode : Lossy
    Bits/(Pixel*Frame) : 0.145
    Stream size : 472 MiB (85%)
    Title : Video
    Writing library : DivX 2151

    Audio #1
    ID : 1
    Format : MPEG Audio
    Format version : Version 1
    Format profile : Layer 3
    Codec ID : 55
    Codec ID/Hint : MP3
    Duration : 43 min 57 s
    Bit rate mode : Constant
    Bit rate : 128 kb/s
    Channel(s) : 2 channels
    Sampling rate : 48.0 kHz
    Compression mode : Lossy
    Stream size : 40.2 MiB (7%)
    Alignment : Split accross interleaves
    Interleave, duration : 40 ms (1.00 video frame)
    Interleave, preload duration : 500 ms
    Title : Audio

    Audio #2
    ID : 2
    Format : MPEG Audio
    Format version : Version 1
    Format profile : Layer 3
    Codec ID : 55
    Codec ID/Hint : MP3
    Duration : 43 min 57 s
    Bit rate mode : Constant
    Bit rate : 128 kb/s
    Channel(s) : 2 channels
    Sampling rate : 48.0 kHz
    Compression mode : Lossy
    Stream size : 40.2 MiB (7%)
    Alignment : Split accross interleaves
    Interleave, duration : 40 ms (1.00 video frame)
    Interleave, preload duration : 500 ms
    Title : Audio

    Text
    ID : 3
    Format : DivX Subtitle
    Codec ID : DXSB
    Codec ID/Info : Subtitle in AVI from DivX networks
    Width : 640 characters
    Height : 480 characters
    Bit depth : 4 bits
    Stream size : 1.32 MiB (0%)
    Title : Subtitle

    OFDB:

    Download:
    Hidden Content:
    **Versteckter Inhalt: Du musst 'Gefällt mir' klicken, bevor du den Inhalt sehen kannst.**
     
    Tags:
    seras victoria gefällt das.
Die Seite wird geladen...