1. Willkommen beim WoH Board. Um Beiträge zu verfassen, musst du dich kostenlos registrieren.

[Biete] Grancrest Senki | Record of Grancrest War [Jap-Dub][Ger-Sub][720p|1080p][24/24][WebRip] - [email protected]

Dieses Thema im Forum "Ger Sub" wurde erstellt von [email protected], 27 April 2018.

  1. [email protected] Otaku Gott

    Ta@
    Grancrest Senki
    Record of Grancrest War

    [​IMG]
    Kurzbeschreibung:

    Folgen: 24/24
    Größe pro Folge: 500 MB/2500 MB
    Folgendauer: ~24 Min
    Releaser: [email protected]
    Art: Lizenzrelease
    Sprache: Japanisch
    Untertitel: Deutsch
    Auflösung: 1280x720/1920x1080
    Format: MKV
    Quelle: WebRip
    Videocodec: x264
    Farbtiefe: 8Bit
    Audiocodec: AAC
    Hoster: Share-Online

    MediaInfo:
    General
    Unique ID : 243246838095614108229528089933623308570 (0xB6FFA30E46AD39D1802442518D07B11A)
    Complete name : [[email protected]]Grancrest_Sanki_01_[Web,720p,AAC].mkv
    Format : Matroska
    Format version : Version 4 / Version 2
    File size : 620 MiB
    Duration : 23 min 33 s
    Overall bit rate : 3 681 kb/s
    Encoded date : UTC 2018-01-05 17:26:05
    Writing application : mkvmerge v18.0.0 ('Apricity') 64-bit
    Writing library : libebml v1.3.5 + libmatroska v1.4.8

    Video
    ID : 1
    Format : AVC
    Format/Info : Advanced Video Codec
    Format profile : [email protected]
    Format settings : CABAC / 9 Ref Frames
    Format settings, CABAC : Yes
    Format settings, RefFrames : 9 frames
    Codec ID : V_MPEG4/ISO/AVC
    Duration : 23 min 33 s
    Bit rate : 3 482 kb/s
    Width : 1 280 pixels
    Height : 720 pixels
    Display aspect ratio : 16:9
    Frame rate mode : Constant
    Frame rate : 23.976 (24000/1001) FPS
    Color space : YUV
    Chroma subsampling : 4:2:0
    Bit depth : 8 bits
    Scan type : Progressive
    Bits/(Pixel*Frame) : 0.158
    Stream size : 587 MiB (95%)
    Writing library : x264 core 152 r2851 ba24899
    Encoding settings : cabac=1 / ref=9 / deblock=1:1:1 / analyse=0x3:0x133 / me=umh / subme=10 / psy=1 / psy_rd=0.40:0.00 / mixed_ref=1 / me_range=24 / chroma_me=1 / trellis=2 / 8x8dct=1 / cqm=0 / deadzone=21,11 / fast_pskip=1 / chroma_qp_offset=-2 / threads=6 / lookahead_threads=1 / sliced_threads=0 / nr=0 / decimate=1 / interlaced=0 / bluray_compat=0 / constrained_intra=0 / bframes=10 / b_pyramid=2 / b_adapt=2 / b_bias=0 / direct=3 / weightb=1 / open_gop=0 / weightp=2 / keyint=250 / keyint_min=23 / scenecut=40 / intra_refresh=0 / rc_lookahead=60 / rc=crf / mbtree=1 / crf=14.0 / qcomp=0.60 / qpmin=0 / qpmax=69 / qpstep=4 / ip_ratio=1.40 / aq=1:0.60
    Default : Yes
    Forced : No

    Audio
    ID : 2
    Format : AAC
    Format/Info : Advanced Audio Codec
    Format profile : LC
    Codec ID : A_AAC-2
    Duration : 23 min 33 s
    Bit rate : 197 kb/s
    Channel(s) : 2 channels
    Channel positions : Front: L R
    Sampling rate : 48.0 kHz
    Frame rate : 46.875 FPS (1024 SPF)
    Compression mode : Lossy
    Delay relative to video : -21 ms
    Stream size : 33.2 MiB (5%)
    Default : Yes
    Forced : No
    General
    Unique ID : 241694709149462725190835686936522401877 (0xB5D4B530BF967084A84E9CC7E0322855)
    Complete name : [[email protected]]Grancrest_Sanki_01_[Web,1080p,AAC].mkv
    Format : Matroska
    Format version : Version 4 / Version 2
    File size : 2.76 GiB
    Duration : 23 min 33 s
    Overall bit rate : 16.8 Mb/s
    Encoded date : UTC 2018-01-05 17:26:28
    Writing application : mkvmerge v18.0.0 ('Apricity') 64-bit
    Writing library : libebml v1.3.5 + libmatroska v1.4.8

    Video
    ID : 1
    Format : AVC
    Format/Info : Advanced Video Codec
    Format profile : [email protected]
    Format settings : CABAC / 4 Ref Frames
    Format settings, CABAC : Yes
    Format settings, RefFrames : 4 frames
    Codec ID : V_MPEG4/ISO/AVC
    Duration : 23 min 33 s
    Bit rate : 16.6 Mb/s
    Width : 1 920 pixels
    Height : 1 080 pixels
    Display aspect ratio : 16:9
    Frame rate mode : Constant
    Frame rate : 23.976 (24000/1001) FPS
    Color space : YUV
    Chroma subsampling : 4:2:0
    Bit depth : 8 bits
    Scan type : Progressive
    Bits/(Pixel*Frame) : 0.334
    Stream size : 2.73 GiB (99%)
    Writing library : x264 core 152 r2851 ba24899
    Encoding settings : cabac=1 / ref=4 / deblock=1:1:1 / analyse=0x3:0x133 / me=umh / subme=10 / psy=1 / psy_rd=0.40:0.00 / mixed_ref=1 / me_range=24 / chroma_me=1 / trellis=2 / 8x8dct=1 / cqm=0 / deadzone=21,11 / fast_pskip=1 / chroma_qp_offset=-2 / threads=6 / lookahead_threads=1 / sliced_threads=0 / nr=0 / decimate=1 / interlaced=0 / bluray_compat=0 / constrained_intra=0 / bframes=10 / b_pyramid=2 / b_adapt=2 / b_bias=0 / direct=3 / weightb=1 / open_gop=0 / weightp=2 / keyint=250 / keyint_min=23 / scenecut=40 / intra_refresh=0 / rc_lookahead=60 / rc=crf / mbtree=1 / crf=12.0 / qcomp=0.60 / qpmin=0 / qpmax=69 / qpstep=4 / ip_ratio=1.40 / aq=1:0.60
    Default : Yes
    Forced : No

    Audio
    ID : 2
    Format : AAC
    Format/Info : Advanced Audio Codec
    Format profile : LC
    Codec ID : A_AAC-2
    Duration : 23 min 33 s
    Bit rate : 197 kb/s
    Channel(s) : 2 channels
    Channel positions : Front: L R
    Sampling rate : 48.0 kHz
    Frame rate : 46.875 FPS (1024 SPF)
    Compression mode : Lossy
    Delay relative to video : -21 ms
    Stream size : 33.2 MiB (1%)
    Default : Yes
    Forced : No

    720p:[​IMG]1080p[​IMG]
    Hidden Content:
    **Versteckter Inhalt: Du musst 'Gefällt mir' klicken, bevor du den Inhalt sehen kannst.**
    --- Double Post Merged, 28 April 2018 ---
    ~Folge 16 online~
     
    Zuletzt bearbeitet: 23 Juni 2018
    Tags:
    -XTIAN-, HentaiFreak18, Dr4cos und 110 anderen gefällt das.
  2. [email protected] Otaku Gott

    Ta@
    ~Folge 17 Online~
     
    madx und Maze8888 gefällt das.
  3. [email protected] Otaku Gott

    Ta@
    ~Folge 18 online~
     
    madx, Alodas und Maze8888 gefällt das.
  4. [email protected] Otaku Gott

    Ta@
    ~Folge 19 online~
     
    madx, Maze8888 und Alodas gefällt das.
  5. [email protected] Otaku Gott

    Ta@
    ~Folge 20 online~
     
    Maze8888, Alodas und madx gefällt das.
  6. [email protected] Otaku Gott

    Ta@
    ~Folge 21 online~
     
    Maze8888, madx und Alodas gefällt das.
  7. [email protected] Otaku Gott

    Ta@
    ~Folge 22 online~
     
    madx, Maze8888 und Alodas gefällt das.
  8. [email protected] Otaku Gott

    Ta@
    ~Folge 23 online~
     
    Maze8888, madx und Alodas gefällt das.
  9. [email protected] Otaku Gott

    Ta@
    ~Folge 24 online~
    ~Staffel/Serie komplett, viel Spaß ^^ ~
     
    Alodas, Maze8888 und madx gefällt das.
Die Seite wird geladen...