1. Willkommen beim WoH Board. Um Beiträge zu verfassen, musst du dich kostenlos registrieren.

[Biete] Isekai Maou to Shoukan Shoujo no Dorei Majutsu|How Not to Summon a Demon Lord [Jap-Dub][Multi-Sub][720p][02/12][WebRip][Unzensiert] - Fuuko

Dieses Thema im Forum "Ger Sub" wurde erstellt von Fuuko, 8 Juli 2018.

  1. Fuuko Gottheit

    Fuuko
    Isekai Maou to Shoukan Shoujo no Dorei Majutsu
    How Not to Summon a Demon Lord

    [​IMG]
    [​IMG]
    Im Bezug auf das MMORPG Cross Reverie konnte Sakamoto Takuma eine überwältigende Stärke sein Eigen nennen, die ihm sogar den Spitznamen „Dämonenkönig“ bei anderen Spielern einbrachte. Eines Tages wird er mit dem Aussehen seines Avatars in eine andere Welt reinkarniert. Dort behaupten gleich zwei Frauen, seine wahre Beschwörerin zu sein und sie beide nutzen Versklavungsmagie für beschworene Bestien in der Hoffnung, ihn damit gefügig zu machen.
    [​IMG]
    [​IMG]
    [​IMG]
    Episoden: 02/12
    Spieldauer: 24 Min.
    Source: Fuuko
    Format: MKV
    Video-Codec: x264
    Audio-Codec: AAC
    Sprache: Japanisch
    Untertitel: Englisch | Deutsch | Spanisch | Französisch | Italienisch | Portugisisch | Russisch
    Auflösung: 720p
    Größe: 400 MB
    Parts: je 1000 MB
    Jahr: 2018
    Unzensierte Version
    Code:
    Format                      : Matroska
    Format version              : Version 4 / Version 2
    File size                   : 342 MiB
    Duration                    : 24mn 0s
    Overall bit rate            : 1 994 Kbps
    Encoded date                : UTC 2018-07-05 20:37:09
    Writing application         : mkvmerge v24.0.0 ('Beyond The Pale') 64-bit
    Writing library             : libebml v1.3.6 + libmatroska v1.4.9
    
    Video
    ID                          : 1
    Format                      : AVC
    Format/Info                 : Advanced Video Codec
    Format profile              : [email protected]
    Format settings, CABAC      : Yes
    Format settings, ReFrames   : 4 frames
    Codec ID                    : V_MPEG4/ISO/AVC
    Duration                    : 24mn 0s
    Bit rate                    : 1 800 Kbps
    Width                       : 1 280 pixels
    Height                      : 720 pixels
    Display aspect ratio        : 16:9
    Frame rate mode             : Constant
    Frame rate                  : 23.976 (24000/1001) fps
    Color space                 : YUV
    Chroma subsampling          : 4:2:0
    Bit depth                   : 8 bits
    Scan type                   : Progressive
    Bits/(Pixel*Frame)          : 0.081
    Stream size                 : 309 MiB (90%)
    Writing library             : x264 core 155 r2901 7d0ff22
    Encoding settings           : cabac=1 / ref=3 / deblock=1:0:0 / analyse=0x1:0x111 / me=hex / subme=7 / psy=1 / psy_rd=1.00:0.00 / mixed_ref=1 / me_range=16 / chroma_me=1 / trellis=1 / 8x8dct=0 / cqm=0 / deadzone=21,11 / fast_pskip=1 / chroma_qp_offset=-2 / threads=18 / lookahead_threads=3 / sliced_threads=0 / nr=0 / decimate=1 / interlaced=0 / bluray_compat=0 / constrained_intra=0 / bframes=3 / b_pyramid=2 / b_adapt=1 / b_bias=0 / direct=1 / weightb=1 / open_gop=0 / weightp=2 / keyint=240 / keyint_min=1 / scenecut=40 / intra_refresh=0 / rc_lookahead=40 / rc=crf / mbtree=1 / crf=20.0 / qcomp=0.60 / qpmin=0 / qpmax=69 / qpstep=4 / ip_ratio=1.40 / aq=1:1.50
    Default                     : Yes
    Forced                      : No
    Color range                 : Limited
    Color primaries             : BT.709
    Transfer characteristics    : BT.709
    Matrix coefficients         : BT.709
    
    Audio
    ID                          : 2
    Format                      : AAC
    Format/Info                 : Advanced Audio Codec
    Format profile              : LC
    Codec ID                    : A_AAC
    Duration                    : 24mn 0s
    Bit rate                    : 192 Kbps
    Channel(s)                  : 2 channels
    Channel positions           : Front: L R
    Sampling rate               : 48.0 KHz
    Frame rate                  : 46.875 fps (1024 spf)
    Compression mode            : Lossy
    Delay relative to video     : -83ms
    Stream size                 : 32.5 MiB (9%)
    Language                    : Japanese
    Default                     : Yes
    Forced                      : No
    
    Text #1
    ID                          : 3
    Format                      : ASS
    Codec ID                    : S_TEXT/ASS
    Codec ID/Info               : Advanced Sub Station Alpha
    Duration                    : 23mn 51s
    Bit rate                    : 135 bps
    Count of elements           : 355
    Compression mode            : Lossless
    Stream size                 : 23.7 KiB (0%)
    Title                       : Deutsch
    Default                     : Yes
    Forced                      : No
    
    Text #2
    ID                          : 4
    Format                      : ASS
    Codec ID                    : S_TEXT/ASS
    Codec ID/Info               : Advanced Sub Station Alpha
    Duration                    : 23mn 47s
    Bit rate                    : 138 bps
    Count of elements           : 405
    Compression mode            : Lossless
    Stream size                 : 24.2 KiB (0%)
    Title                       : English (US)
    Default                     : No
    Forced                      : No
    
    Text #3
    ID                          : 5
    Format                      : ASS
    Codec ID                    : S_TEXT/ASS
    Codec ID/Info               : Advanced Sub Station Alpha
    Duration                    : 23mn 47s
    Bit rate                    : 128 bps
    Count of elements           : 389
    Compression mode            : Lossless
    Stream size                 : 22.3 KiB (0%)
    Title                       : Español (España)
    Default                     : No
    Forced                      : No
    
    Text #4
    ID                          : 6
    Format                      : ASS
    Codec ID                    : S_TEXT/ASS
    Codec ID/Info               : Advanced Sub Station Alpha
    Duration                    : 23mn 47s
    Bit rate                    : 128 bps
    Count of elements           : 386
    Compression mode            : Lossless
    Stream size                 : 22.3 KiB (0%)
    Title                       : Español
    Default                     : No
    Forced                      : No
    
    Text #5
    ID                          : 7
    Format                      : ASS
    Codec ID                    : S_TEXT/ASS
    Codec ID/Info               : Advanced Sub Station Alpha
    Duration                    : 23mn 47s
    Bit rate                    : 122 bps
    Count of elements           : 354
    Compression mode            : Lossless
    Stream size                 : 21.4 KiB (0%)
    Title                       : Français (France)
    Default                     : No
    Forced                      : No
    
    Text #6
    ID                          : 8
    Format                      : ASS
    Codec ID                    : S_TEXT/ASS
    Codec ID/Info               : Advanced Sub Station Alpha
    Duration                    : 23mn 48s
    Bit rate                    : 130 bps
    Count of elements           : 448
    Compression mode            : Lossless
    Stream size                 : 22.7 KiB (0%)
    Title                       : Italiano
    Default                     : No
    Forced                      : No
    
    Text #7
    ID                          : 9
    Format                      : ASS
    Codec ID                    : S_TEXT/ASS
    Codec ID/Info               : Advanced Sub Station Alpha
    Duration                    : 23mn 47s
    Bit rate                    : 142 bps
    Count of elements           : 412
    Compression mode            : Lossless
    Stream size                 : 24.9 KiB (0%)
    Title                       : Português (Brasil)
    Default                     : No
    Forced                      : No
    
    Text #8
    ID                          : 10
    Format                      : ASS
    Codec ID                    : S_TEXT/ASS
    Codec ID/Info               : Advanced Sub Station Alpha
    Duration                    : 23mn 50s
    Bit rate                    : 222 bps
    Count of elements           : 457
    Compression mode            : Lossless
    Stream size                 : 38.8 KiB (0%)
    Title                       : Русский
    Default                     : No
    Forced                      : No
    [​IMG]
    720p[​IMG]
    Hidden Content:
    **Versteckter Inhalt: Du musst 'Gefällt mir' klicken, bevor du den Inhalt sehen kannst.**
     
    Zuletzt bearbeitet: 12 Juli 2018
    Tags:
  2. Fuuko Gottheit

    Fuuko
    ~ Episode 02 hinzugefügt ~
    [​IMG]
     
    Zuletzt bearbeitet: 12 Juli 2018
    madx gefällt das.
Die Seite wird geladen...