1. Willkommen beim WoH Board. Um Beiträge zu verfassen, musst du dich kostenlos registrieren.

[Biete] Ore ga Ojou-sama Gakkou ni "Shomin Sample" Toshite Gets-sareta Ken | Shomin Sample + Bonus [Ger-Jap-Dub][Ger-Sub][404p|720p|1080p][6/12+3/6][BluRay] - AST4u

Dieses Thema im Forum "Ger Dub" wurde erstellt von [email protected], 10 Februar 2019.

  1. [email protected] Otakuholic

    Ta@
    Ore ga Ojou-sama Gakkou ni "Shomin Sample" Toshite Gets-sareta Ken
    Shomin Sample
    Story in Which I Was Kidnapped by a Young Lady’s School to be a Sample of the Common People

    [​IMG]
    [​IMG]

    Ausgerechnet seine Durchschnittlichkeit und sein scheinbares Desinteresse an Mädchen machen Kimito zum perfekten Kandidaten für die Seikain-Schule. Dort werden eigentlich nur Mädchen aus der Oberschicht traditionell und fernab vom echten Leben erzogen. Doch da sich viele Absolventinnen zuletzt „draußen” kein bisschen zurechtfanden, soll der Normalo nun Abhilfe schaffen. Neugierig, aber völlig unbedarft in Frauendingen, beginnt schon tags darauf seine Zeit als einziger männlicher Schüler des Internats. Für Kimito könnte das der Hauptgewinn sein – wären da nicht diese verwöhnten, vorlauten und ahnungslosen Gören.

    Folgen: 12/12 + Bonus 6/6
    Größe pro Folge: ~300 MB/~600 MB/~1125 MB/~1700 MB
    Folgendauer: ~24 Min
    Releaser: AST4u
    Art: Lizenzrelease
    Sprache: Japanisch, Deutsch
    Untertitel: Deutsch
    Jahr: 2015
    Genres: Alltagsleben, Ecchi, Harem, Komödie, Romanze
    Auflösung: 720x404/1280x720/1920x1080
    Format: MKV
    Quelle: BluRay
    Videocodec: x264
    Farbtiefe: 8Bit
    Audiocodec: AC3/DTS
    Publisher: KAZÉ Anime
    Hoster: Share-Online

    [​IMG]
    Code:
    General Complete name : Shomin.Sample.Bonus01.JapDub.GerSub.AC3.BDRip.x264-AST4u.mkv Format : Matroska Format version : Version 4 File size : 25.2 MiB Duration : 3 min 34 s Overall bit rate : 985 kb/s Encoded date : UTC 2019-02-09 18:20:56 Writing application : mkvmerge v15.0.0 ('Duel with the Devil') 64-bit Writing library : libebml v1.3.5 + libmatroska v1.4.5 Video ID : 1 Format : AVC Format/Info : Advanced Video Codec Format profile : [email protected] Format settings : CABAC / 4 Ref Frames Format settings, CABAC : Yes Format settings, RefFrames : 4 frames Codec ID : V_MPEG4/ISO/AVC Duration : 3 min 34 s Bit rate : 583 kb/s Width : 720 pixels Height : 404 pixels Display aspect ratio : 16:9 Frame rate mode : Constant Frame rate : 23.976 (24000/1001) FPS Color space : YUV Chroma subsampling : 4:2:0 Bit depth : 8 bits Scan type : Progressive Bits/(Pixel*Frame) : 0.084 Stream size : 14.9 MiB (59%) Writing library : x264 core 152 r2851 ba24899 Encoding settings : cabac=1 / ref=3 / deblock=1:1:1 / analyse=0x3:0x133 / me=umh / subme=9 / psy=1 / psy_rd=1.00:0.00 / mixed_ref=1 / me_range=32 / chroma_me=1 / trellis=2 / 8x8dct=1 / cqm=0 / deadzone=21,11 / fast_pskip=1 / chroma_qp_offset=-2 / threads=13 / lookahead_threads=1 / sliced_threads=0 / nr=0 / decimate=1 / interlaced=0 / bluray_compat=0 / constrained_intra=0 / bframes=3 / b_pyramid=2 / b_adapt=2 / b_bias=0 / direct=3 / weightb=1 / open_gop=0 / weightp=2 / keyint=250 / keyint_min=25 / scenecut=40 / intra_refresh=0 / rc_lookahead=48 / rc=crf / mbtree=1 / crf=16.0 / qcomp=0.60 / qpmin=0 / qpmax=69 / qpstep=4 / ip_ratio=1.40 / aq=3:1.00 Default : Yes Forced : No Color range : Limited Matrix coefficients : BT.709 Audio ID : 2 Format : AC-3 Format/Info : Audio Coding 3 Commercial name : Dolby Digital Codec ID : A_AC3 Duration : 3 min 34 s Bit rate mode : Constant Bit rate : 384 kb/s Channel(s) : 2 channels Channel layout : L R Sampling rate : 48.0 kHz Frame rate : 31.250 FPS (1536 SPF) Bit depth : 16 bits Compression mode : Lossy Stream size : 9.82 MiB (39%) Language : Japanese Service kind : Complete Main Default : No Forced : No Text ID : 3 Format : PGS Muxing mode : zlib Codec ID : S_HDMV/PGS Codec ID/Info : Picture based subtitle format used on BDs/HD-DVDs Duration : 3 min 14 s Bit rate : 48.5 kb/s Count of elements : 100 Stream size : 1.12 MiB (4%) Language : German Default : No Forced : No ​
    Code:
    General Complete name : Shomin.Sample.Bonus01.JapDub.GerSub.AC3.720p.BluRay.x264-AST4u.mkv Format : Matroska Format version : Version 4 File size : 52.6 MiB Duration : 3 min 34 s Overall bit rate : 2 058 kb/s Encoded date : UTC 2019-02-09 19:46:44 Writing application : mkvmerge v15.0.0 ('Duel with the Devil') 64-bit Writing library : libebml v1.3.5 + libmatroska v1.4.5 Video ID : 1 Format : AVC Format/Info : Advanced Video Codec Format profile : [email protected] Format settings : CABAC / 4 Ref Frames Format settings, CABAC : Yes Format settings, RefFrames : 4 frames Codec ID : V_MPEG4/ISO/AVC Duration : 3 min 34 s Bit rate : 1 593 kb/s Width : 1 280 pixels Height : 720 pixels Display aspect ratio : 16:9 Frame rate mode : Constant Frame rate : 23.976 (24000/1001) FPS Color space : YUV Chroma subsampling : 4:2:0 Bit depth : 8 bits Scan type : Progressive Bits/(Pixel*Frame) : 0.072 Stream size : 40.7 MiB (77%) Writing library : x264 core 152 r2851 ba24899 Encoding settings : cabac=1 / ref=3 / deblock=1:1:1 / analyse=0x3:0x133 / me=umh / subme=9 / psy=1 / psy_rd=1.00:0.00 / mixed_ref=1 / me_range=32 / chroma_me=1 / trellis=2 / 8x8dct=1 / cqm=0 / deadzone=21,11 / fast_pskip=1 / chroma_qp_offset=-2 / threads=22 / lookahead_threads=1 / sliced_threads=0 / nr=0 / decimate=1 / interlaced=0 / bluray_compat=0 / constrained_intra=0 / bframes=3 / b_pyramid=2 / b_adapt=2 / b_bias=0 / direct=3 / weightb=1 / open_gop=0 / weightp=2 / keyint=250 / keyint_min=25 / scenecut=40 / intra_refresh=0 / rc_lookahead=48 / rc=crf / mbtree=1 / crf=16.0 / qcomp=0.60 / qpmin=0 / qpmax=69 / qpstep=4 / ip_ratio=1.40 / aq=3:1.00 Default : Yes Forced : No Color range : Limited Matrix coefficients : BT.709 Audio ID : 2 Format : AC-3 Format/Info : Audio Coding 3 Commercial name : Dolby Digital Codec ID : A_AC3 Duration : 3 min 34 s Bit rate mode : Constant Bit rate : 448 kb/s Channel(s) : 2 channels Channel layout : L R Sampling rate : 48.0 kHz Frame rate : 31.250 FPS (1536 SPF) Bit depth : 16 bits Compression mode : Lossy Stream size : 11.5 MiB (22%) Language : Japanese Service kind : Complete Main Default : No Forced : No Text ID : 3 Format : PGS Muxing mode : zlib Codec ID : S_HDMV/PGS Codec ID/Info : Picture based subtitle format used on BDs/HD-DVDs Duration : 3 min 14 s Bit rate : 48.5 kb/s Count of elements : 100 Stream size : 1.12 MiB (2%) Language : German Default : No Forced : No ​
    Code:
    General Complete name : Shomin.Sample.Ep01.German.AC3.DL.1080p.BluRay.x264-AST4u.mkv Format : Matroska Format version : Version 4 File size : 1.10 GiB Duration : 23 min 40 s Overall bit rate : 6 628 kb/s Encoded date : UTC 2019-02-09 21:42:02 Writing application : mkvmerge v15.0.0 ('Duel with the Devil') 64-bit Writing library : libebml v1.3.5 + libmatroska v1.4.5 Video ID : 1 Format : AVC Format/Info : Advanced Video Codec Format profile : [email protected] Format settings : CABAC / 4 Ref Frames Format settings, CABAC : Yes Format settings, RefFrames : 4 frames Codec ID : V_MPEG4/ISO/AVC Duration : 23 min 40 s Bit rate : 5 713 kb/s Width : 1 920 pixels Height : 1 080 pixels Display aspect ratio : 16:9 Frame rate mode : Constant Frame rate : 23.976 (24000/1001) FPS Color space : YUV Chroma subsampling : 4:2:0 Bit depth : 8 bits Scan type : Progressive Bits/(Pixel*Frame) : 0.115 Stream size : 967 MiB (86%) Writing library : x264 core 152 r2851 ba24899 Encoding settings : cabac=1 / ref=3 / deblock=1:1:1 / analyse=0x3:0x133 / me=umh / subme=9 / psy=1 / psy_rd=1.00:0.00 / mixed_ref=1 / me_range=32 / chroma_me=1 / trellis=2 / 8x8dct=1 / cqm=0 / deadzone=21,11 / fast_pskip=1 / chroma_qp_offset=-2 / threads=24 / lookahead_threads=2 / sliced_threads=0 / nr=0 / decimate=1 / interlaced=0 / bluray_compat=0 / constrained_intra=0 / bframes=3 / b_pyramid=2 / b_adapt=2 / b_bias=0 / direct=3 / weightb=1 / open_gop=0 / weightp=2 / keyint=250 / keyint_min=25 / scenecut=40 / intra_refresh=0 / rc_lookahead=48 / rc=crf / mbtree=1 / crf=16.0 / qcomp=0.60 / qpmin=0 / qpmax=69 / qpstep=4 / ip_ratio=1.40 / aq=3:1.00 Default : Yes Forced : No Color range : Limited Matrix coefficients : BT.709 Audio #1 ID : 2 Format : AC-3 Format/Info : Audio Coding 3 Commercial name : Dolby Digital Codec ID : A_AC3 Duration : 23 min 40 s Bit rate mode : Constant Bit rate : 448 kb/s Channel(s) : 2 channels Channel layout : L R Sampling rate : 48.0 kHz Frame rate : 31.250 FPS (1536 SPF) Bit depth : 16 bits Compression mode : Lossy Stream size : 75.8 MiB (7%) Language : German Service kind : Complete Main Default : Yes Forced : No Audio #2 ID : 3 Format : AC-3 Format/Info : Audio Coding 3 Commercial name : Dolby Digital Codec ID : A_AC3 Duration : 23 min 40 s Bit rate mode : Constant Bit rate : 448 kb/s Channel(s) : 2 channels Channel layout : L R Sampling rate : 48.0 kHz Frame rate : 31.250 FPS (1536 SPF) Bit depth : 16 bits Compression mode : Lossy Stream size : 75.8 MiB (7%) Language : Japanese Service kind : Complete Main Default : No Forced : No Text #1 ID : 4 Format : PGS Muxing mode : zlib Codec ID : S_HDMV/PGS Codec ID/Info : Picture based subtitle format used on BDs/HD-DVDs Duration : 23 min 18 s Bit rate : 40.3 kb/s Count of elements : 736 Stream size : 6.73 MiB (1%) Language : German Default : No Forced : No Text #2 ID : 5 Format : PGS Muxing mode : zlib Codec ID : S_HDMV/PGS Codec ID/Info : Picture based subtitle format used on BDs/HD-DVDs Duration : 23 min 12 s Bit rate : 4 672 b/s Count of elements : 72 Stream size : 794 KiB (0%) Language : German Default : No Forced : No ​
    Code:
    General Complete name : Shomin.Sample.Ep01.German.DTS.2.0.DL.1080p.BluRay.x264-AST4u.mkv Format : Matroska Format version : Version 4 File size : 1.66 GiB Duration : 23 min 40 s Overall bit rate mode : Variable Overall bit rate : 10.0 Mb/s Encoded date : UTC 2019-02-10 10:38:59 Writing application : mkvmerge v19.0.0 ('Brave Captain') 64-bit Writing library : libebml v1.3.5 + libmatroska v1.4.8 Video ID : 1 Format : AVC Format/Info : Advanced Video Codec Format profile : [email protected] Format settings : CABAC / 4 Ref Frames Format settings, CABAC : Yes Format settings, RefFrames : 4 frames Codec ID : V_MPEG4/ISO/AVC Duration : 23 min 40 s Bit rate : 5 713 kb/s Width : 1 920 pixels Height : 1 080 pixels Display aspect ratio : 16:9 Frame rate mode : Constant Frame rate : 23.976 (24000/1001) FPS Color space : YUV Chroma subsampling : 4:2:0 Bit depth : 8 bits Scan type : Progressive Bits/(Pixel*Frame) : 0.115 Stream size : 967 MiB (57%) Writing library : x264 core 152 r2851 ba24899 Encoding settings : cabac=1 / ref=3 / deblock=1:1:1 / analyse=0x3:0x133 / me=umh / subme=9 / psy=1 / psy_rd=1.00:0.00 / mixed_ref=1 / me_range=32 / chroma_me=1 / trellis=2 / 8x8dct=1 / cqm=0 / deadzone=21,11 / fast_pskip=1 / chroma_qp_offset=-2 / threads=24 / lookahead_threads=2 / sliced_threads=0 / nr=0 / decimate=1 / interlaced=0 / bluray_compat=0 / constrained_intra=0 / bframes=3 / b_pyramid=2 / b_adapt=2 / b_bias=0 / direct=3 / weightb=1 / open_gop=0 / weightp=2 / keyint=250 / keyint_min=25 / scenecut=40 / intra_refresh=0 / rc_lookahead=48 / rc=crf / mbtree=1 / crf=16.0 / qcomp=0.60 / qpmin=0 / qpmax=69 / qpstep=4 / ip_ratio=1.40 / aq=3:1.00 Default : Yes Forced : No Color range : Limited Matrix coefficients : BT.709 Audio #1 ID : 2 Format : DTS XLL Format/Info : Digital Theater Systems Commercial name : DTS-HD Master Audio Codec ID : A_DTS Duration : 23 min 40 s Bit rate mode : Variable Bit rate : 2 122 kb/s Channel(s) : 2 channels Channel layout : L R Sampling rate : 48.0 kHz Frame rate : 93.750 FPS (512 SPF) Bit depth : 24 bits Compression mode : Lossless Stream size : 359 MiB (21%) Language : German Default : Yes Forced : No Audio #2 ID : 3 Format : DTS XLL Format/Info : Digital Theater Systems Commercial name : DTS-HD Master Audio Codec ID : A_DTS Duration : 23 min 40 s Bit rate mode : Variable Bit rate : 2 162 kb/s Channel(s) : 2 channels Channel layout : L R Sampling rate : 48.0 kHz Frame rate : 93.750 FPS (512 SPF) Bit depth : 24 bits Compression mode : Lossless Stream size : 366 MiB (22%) Language : Japanese Default : No Forced : No Text #1 ID : 4 Format : PGS Muxing mode : zlib Codec ID : S_HDMV/PGS Codec ID/Info : Picture based subtitle format used on BDs/HD-DVDs Duration : 23 min 18 s Bit rate : 40.3 kb/s Count of elements : 736 Stream size : 6.73 MiB (0%) Language : German Default : No Forced : No Text #2 ID : 5 Format : PGS Muxing mode : zlib Codec ID : S_HDMV/PGS Codec ID/Info : Picture based subtitle format used on BDs/HD-DVDs Duration : 23 min 12 s Bit rate : 4 672 b/s Count of elements : 72 Stream size : 794 KiB (0%) Language : German Default : No Forced : No ​

    Anmerkung:
    Dies ist ein Original BluRay Encode.

    408p:[​IMG]720p:[​IMG]1080p:[​IMG]1080p DTS:[​IMG]

    Hidden Content:
    **Versteckter Inhalt: Du musst 'Gefällt mir' klicken, bevor du den Inhalt sehen kannst.**
     
    Zuletzt bearbeitet: 17 April 2019
    Tags:
  2. [email protected] Otakuholic

    Ta@
    ~Abgeschlossen~
     
    Yodalahiti gefällt das.
Die Seite wird geladen...