1. Willkommen beim WoH Board. Um Beiträge zu verfassen, musst du dich kostenlos registrieren.

[Biete] RobiHachi [Jap-Dub][Ger-Sub][720p|1080p][04/12][WebRip] - [email protected]

Dieses Thema im Forum "Ger Sub" wurde erstellt von [email protected], 13 April 2019.

  1. [email protected] Otakuholic

    Ta@
    RobiHachi


    [​IMG]
    [​IMG]

    Neo Tokyo, wir schreiben das Jahr G.C. 0051 nach galaktischer Zeitrechnung. Ein halbes Jahrhundert ist seit dem Ersten Kontakt vergangen. Die Menschheit hat die Superlichtgeschwindigkeitsnavigationstechnologie erlangt und eine Union mit von Außerirdischen bevölkerten Planeten gebildet. Eine Pechsträhne verfolgt den knapp 30-jährigen, freischaffenden Reporter Robby Yarge. Wegen eines Fehlers auf der Arbeit wurde ihm gekündigt, seine Freundin verlässt ihn, er stirbt fast in einem Verkehrsunfall und Schuldeneintreiber verfolgen ihn. Dann klaut ein Taschendieb ihm auch noch seinen Rucksack, doch ein junger Mann hilft ihm: Kita Hatchi, ein 18 Jahre alter Teilzeit-Jobber, hält den Dieb auf und bringt Robby den Rucksack zurück. Im Gegenzug zeigt er ihm seine Dankbarkeit und lädt ihn auf ein Essen ein. Die beiden entdecken, dass sie grundverschieden sind und so trennen sich ihre Wege wieder.

    Folgen: 4/12
    Größe pro Folge: ~555 MB/~1850 MB
    Folgendauer: ~24 Min
    Releaser: [email protected]
    Art: Lizenzrelease
    Sprache: Japanisch
    Untertitel: Deutsch
    Jahr: 2019
    Genres: Abenteuer, Action, Komödie, Mecha, Scifi
    Auflösung: 1280x720/1920x1080
    Format: MKV
    Quelle: WebRip
    Videocodec: x264
    Farbtiefe: 8Bit
    Audiocodec: AAC
    Publisher: Wakanim
    Hoster: Share-Online

    [​IMG]
    Code:
    General Complete name : [[email protected]]RobiHachi_01_[Web,720p,AAC].mkv Format : Matroska Format version : Version 4 File size : 556 MiB Duration : 23 min 59 s Overall bit rate : 3 241 kb/s Encoded date : UTC 2019-04-09 19:31:24 Writing application : mkvmerge v10.0.0 ('To Drown In You') 64bit Writing library : libebml v1.3.4 + libmatroska v1.4.5 Attachments : font.ttf Video ID : 1 Format : AVC Format/Info : Advanced Video Codec Format profile : [email protected] Format settings : CABAC / 9 Ref Frames Format settings, CABAC : Yes Format settings, RefFrames : 9 frames Codec ID : V_MPEG4/ISO/AVC Duration : 23 min 59 s Bit rate : 3 045 kb/s Width : 1 280 pixels Height : 720 pixels Display aspect ratio : 16:9 Frame rate mode : Constant Frame rate : 23.976 (24000/1001) FPS Color space : YUV Chroma subsampling : 4:2:0 Bit depth : 8 bits Scan type : Progressive Bits/(Pixel*Frame) : 0.138 Stream size : 523 MiB (94%) Writing library : x264 core 155 r2901 7d0ff22 Encoding settings : cabac=1 / ref=9 / deblock=1:1:1 / analyse=0x3:0x133 / me=umh / subme=10 / psy=1 / psy_rd=0.40:0.00 / mixed_ref=1 / me_range=24 / chroma_me=1 / trellis=2 / 8x8dct=1 / cqm=0 / deadzone=21,11 / fast_pskip=1 / chroma_qp_offset=-2 / threads=22 / lookahead_threads=5 / sliced_threads=0 / nr=0 / decimate=1 / interlaced=0 / bluray_compat=0 / constrained_intra=0 / bframes=10 / b_pyramid=2 / b_adapt=2 / b_bias=0 / direct=3 / weightb=1 / open_gop=0 / weightp=2 / keyint=250 / keyint_min=23 / scenecut=40 / intra_refresh=0 / rc_lookahead=60 / rc=crf / mbtree=1 / crf=14.0 / qcomp=0.60 / qpmin=0 / qpmax=69 / qpstep=4 / ip_ratio=1.40 / aq=1:0.60 Default : Yes Forced : No Audio ID : 2 Format : AAC LC Format/Info : Advanced Audio Codec Low Complexity Codec ID : A_AAC-2 Duration : 23 min 59 s Bit rate : 192 kb/s Channel(s) : 2 channels Channel layout : L R Sampling rate : 48.0 kHz Frame rate : 46.875 FPS (1024 SPF) Compression mode : Lossy Delay relative to video : -21 ms Stream size : 33.0 MiB (6%) Default : Yes Forced : No ​
    Code:
    General Complete name : [[email protected]]RobiHachi_01_[Web,1080p,AAC].mkv Format : Matroska Format version : Version 4 File size : 1.81 GiB Duration : 23 min 59 s Overall bit rate : 10.8 Mb/s Encoded date : UTC 2019-04-09 19:31:27 Writing application : mkvmerge v10.0.0 ('To Drown In You') 64bit Writing library : libebml v1.3.4 + libmatroska v1.4.5 Attachments : font.ttf Video ID : 1 Format : AVC Format/Info : Advanced Video Codec Format profile : [email protected] Format settings : CABAC / 4 Ref Frames Format settings, CABAC : Yes Format settings, RefFrames : 4 frames Codec ID : V_MPEG4/ISO/AVC Duration : 23 min 59 s Bit rate : 10.6 Mb/s Width : 1 920 pixels Height : 1 080 pixels Display aspect ratio : 16:9 Frame rate mode : Constant Frame rate : 23.976 (24000/1001) FPS Color space : YUV Chroma subsampling : 4:2:0 Bit depth : 8 bits Scan type : Progressive Bits/(Pixel*Frame) : 0.213 Stream size : 1.77 GiB (98%) Writing library : x264 core 155 r2901 7d0ff22 Encoding settings : cabac=1 / ref=4 / deblock=1:1:1 / analyse=0x3:0x133 / me=umh / subme=10 / psy=1 / psy_rd=0.40:0.00 / mixed_ref=1 / me_range=24 / chroma_me=1 / trellis=2 / 8x8dct=1 / cqm=0 / deadzone=21,11 / fast_pskip=1 / chroma_qp_offset=-2 / threads=24 / lookahead_threads=6 / sliced_threads=0 / nr=0 / decimate=1 / interlaced=0 / bluray_compat=0 / constrained_intra=0 / bframes=10 / b_pyramid=2 / b_adapt=2 / b_bias=0 / direct=3 / weightb=1 / open_gop=0 / weightp=2 / keyint=250 / keyint_min=23 / scenecut=40 / intra_refresh=0 / rc_lookahead=60 / rc=crf / mbtree=1 / crf=12.0 / qcomp=0.60 / qpmin=0 / qpmax=69 / qpstep=4 / ip_ratio=1.40 / aq=1:0.60 Default : Yes Forced : No Audio ID : 2 Format : AAC LC Format/Info : Advanced Audio Codec Low Complexity Codec ID : A_AAC-2 Duration : 23 min 59 s Bit rate : 192 kb/s Channel(s) : 2 channels Channel layout : L R Sampling rate : 48.0 kHz Frame rate : 46.875 FPS (1024 SPF) Compression mode : Lossy Delay relative to video : -21 ms Stream size : 33.0 MiB (2%) Default : Yes Forced : No ​

    Anmerkung:
    Die Untertitel sind im Video eingebrannt.

    720p:[​IMG]1080p:[​IMG]

    Hidden Content:
    **Versteckter Inhalt: Du musst 'Gefällt mir' klicken, bevor du den Inhalt sehen kannst.**
     
    Zuletzt bearbeitet: 2 Mai 2019
    Tags:
    Syncmaster, Sena_x3, Fire3agle und 27 anderen gefällt das.
  2. [email protected] Otakuholic

    Ta@
    ~Folge 2 online~
     
    Maze8888 und madx gefällt das.
  3. [email protected] Otakuholic

    Ta@
    ~Folgen bis 4 online~
     
    Maze8888 und madx gefällt das.
Die Seite wird geladen...