1. Willkommen beim WoH Board. Um Beiträge zu verfassen, musst du dich kostenlos registrieren.

[Biete] Shichisei no Subaru|Seven Senses of the Re'Union [Jap-Dub][Ger-Eng-Sub][720p|1080p][02/12][WebRip] - Fuuko

Dieses Thema im Forum "Ger Sub" wurde erstellt von Fuuko, 8 Juli 2018.

  1. Fuuko Gottheit

    Fuuko
    Shichisei no Subaru
    Seven Senses of the Re'Union

    [​IMG]
    [​IMG]
    In dem MMORPG „Union“ gab es eine legendäre Gruppe mit dem Namen „Subaru“. Sie bestand aus mehreren Kindheitsfreunden und Grundschülern, die die Grenzen des Spiels in gewisser Weise überschritten haben. Aufgrund eines tödlichen Unfalls wurde „Union“ vom Netz genommen. Sechs Jahre später loggte sich der Oberschüler in das neue „Reunion“ ein und traf auf eines der alten „Subaru“-Mitglieder: Asahi. Doch die Freude über das Wiedersehen hält nur kurz, denn sie sollte seit sechs Jahren tot sein. Ist sie eine Art digitaler Geist oder …

    [​IMG]
    Episoden:
    02/12
    Spieldauer: 24 Min.
    Source: WebRip
    Format: MKV
    Video-Codec: x264
    Audio-Codec: AAC
    Sprache: Japanisch
    Untertitel: Deutsch, Englisch
    Publisher: Amazon
    Auflösung: 720p | 1080p
    Größe: 300 MB | 700 MB
    Parts: ein Part pro Episode
    Code:
    Format                      : Matroska
    Format version              : Version 4 / Version 2
    File size                   : 267 MiB
    Duration                    : 24mn 9s
    Overall bit rate            : 1 547 Kbps
    Encoded date                : UTC 2018-07-08 00:42:41
    Writing application         : mkvmerge v17.0.0 ('Be Ur Friend') 64-bit
    Writing library             : libebml v1.3.5 + libmatroska v1.4.8
    Attachments                 : OpenSans-Semibold.ttf
    
    Video
    ID                          : 1
    Format                      : AVC
    Format/Info                 : Advanced Video Codec
    Format profile              : [email protected]
    Format settings, CABAC      : Yes
    Format settings, ReFrames   : 5 frames
    Codec ID                    : V_MPEG4/ISO/AVC
    Duration                    : 24mn 9s
    Bit rate                    : 1 418 Kbps
    Width                       : 1 280 pixels
    Height                      : 720 pixels
    Display aspect ratio        : 16:9
    Frame rate mode             : Constant
    Frame rate                  : 23.976 (24000/1001) fps
    Color space                 : YUV
    Chroma subsampling          : 4:2:0
    Bit depth                   : 8 bits
    Scan type                   : Progressive
    Bits/(Pixel*Frame)          : 0.064
    Stream size                 : 245 MiB (92%)
    Default                     : Yes
    Forced                      : No
    Color range                 : Limited
    Color primaries             : BT.709
    Transfer characteristics    : BT.709
    Matrix coefficients         : BT.709
    
    Audio
    ID                          : 2
    Format                      : AAC
    Format/Info                 : Advanced Audio Codec
    Format profile              : LC
    Codec ID                    : A_AAC
    Duration                    : 24mn 9s
    Bit rate                    : 125 Kbps
    Channel(s)                  : 2 channels
    Channel positions           : Front: L R
    Sampling rate               : 48.0 KHz
    Frame rate                  : 46.875 fps (1024 spf)
    Compression mode            : Lossy
    Stream size                 : 21.7 MiB (8%)
    Language                    : Japanese
    Default                     : Yes
    Forced                      : No
    
    Text #1
    ID                          : 3
    Format                      : ASS
    Codec ID                    : S_TEXT/ASS
    Codec ID/Info               : Advanced Sub Station Alpha
    Duration                    : 23mn 36s
    Bit rate                    : 96 bps
    Count of elements           : 306
    Compression mode            : Lossless
    Stream size                 : 16.6 KiB (0%)
    Title                       : Deutsch
    Language                    : German
    Default                     : Yes
    Forced                      : Yes
    
    Text #2
    ID                          : 4
    Format                      : ASS
    Codec ID                    : S_TEXT/ASS
    Codec ID/Info               : Advanced Sub Station Alpha
    Duration                    : 23mn 36s
    Bit rate                    : 98 bps
    Count of elements           : 320
    Compression mode            : Lossless
    Stream size                 : 17.0 KiB (0%)
    Title                       : English
    Language                    : English
    Default                     : No
    Forced                      : Yes
    Code:
    Format                      : Matroska
    Format version              : Version 4 / Version 2
    File size                   : 665 MiB
    Duration                    : 24mn 9s
    Overall bit rate            : 3 847 Kbps
    Encoded date                : UTC 2018-07-08 00:43:01
    Writing application         : mkvmerge v17.0.0 ('Be Ur Friend') 64-bit
    Writing library             : libebml v1.3.5 + libmatroska v1.4.8
    Attachments                 : OpenSans-Semibold.ttf
    
    Video
    ID                          : 1
    Format                      : AVC
    Format/Info                 : Advanced Video Codec
    Format profile              : [email protected]
    Format settings, CABAC      : Yes
    Format settings, ReFrames   : 4 frames
    Codec ID                    : V_MPEG4/ISO/AVC
    Duration                    : 24mn 9s
    Bit rate                    : 3 718 Kbps
    Width                       : 1 920 pixels
    Height                      : 1 080 pixels
    Display aspect ratio        : 16:9
    Frame rate mode             : Constant
    Frame rate                  : 23.976 (24000/1001) fps
    Color space                 : YUV
    Chroma subsampling          : 4:2:0
    Bit depth                   : 8 bits
    Scan type                   : Progressive
    Bits/(Pixel*Frame)          : 0.075
    Stream size                 : 643 MiB (97%)
    Default                     : Yes
    Forced                      : No
    Color range                 : Limited
    Color primaries             : BT.709
    Transfer characteristics    : BT.709
    Matrix coefficients         : BT.709
    
    Audio
    ID                          : 2
    Format                      : AAC
    Format/Info                 : Advanced Audio Codec
    Format profile              : LC
    Codec ID                    : A_AAC
    Duration                    : 24mn 9s
    Bit rate                    : 125 Kbps
    Channel(s)                  : 2 channels
    Channel positions           : Front: L R
    Sampling rate               : 48.0 KHz
    Frame rate                  : 46.875 fps (1024 spf)
    Compression mode            : Lossy
    Stream size                 : 21.7 MiB (3%)
    Language                    : Japanese
    Default                     : Yes
    Forced                      : No
    
    Text #1
    ID                          : 3
    Format                      : ASS
    Codec ID                    : S_TEXT/ASS
    Codec ID/Info               : Advanced Sub Station Alpha
    Duration                    : 23mn 36s
    Bit rate                    : 96 bps
    Count of elements           : 306
    Compression mode            : Lossless
    Stream size                 : 16.6 KiB (0%)
    Title                       : Deutsch
    Language                    : German
    Default                     : Yes
    Forced                      : Yes
    
    Text #2
    ID                          : 4
    Format                      : ASS
    Codec ID                    : S_TEXT/ASS
    Codec ID/Info               : Advanced Sub Station Alpha
    Duration                    : 23mn 36s
    Bit rate                    : 98 bps
    Count of elements           : 320
    Compression mode            : Lossless
    Stream size                 : 17.0 KiB (0%)
    Title                       : English
    Language                    : English
    Default                     : No
    Forced                      : Yes
    [​IMG]
    720p [​IMG]
    1080p [​IMG]

    Hidden Content:
    **Versteckter Inhalt: Du musst 'Gefällt mir' klicken, bevor du den Inhalt sehen kannst.**
     
    Zuletzt bearbeitet: 12 Juli 2018
    Tags:
  2. Fuuko Gottheit

    Fuuko
    ~ Episode 02 hinzugefügt ~
    Untertitel optisch verändert
     
    Zuletzt bearbeitet: 12 Juli 2018
Die Seite wird geladen...