1. Willkommen beim WoH Board. Um Beiträge zu verfassen, musst du dich kostenlos registrieren.

[Biete] Shichisei no Subaru|Seven Senses of the Re'Union [Jap-Dub][Ger-Eng-Sub][720p|1080p][12/12][WebRip] - Fuuko

Dieses Thema im Forum "Ger Sub" wurde erstellt von Fuuko, 8 Juli 2018.

  1. Fuuko Otaku

    Fuuko
    Shichisei no Subaru
    Seven Senses of the Re'Union

    [​IMG]
    [​IMG]
    In dem MMORPG „Union“ gab es eine legendäre Gruppe mit dem Namen „Subaru“. Sie bestand aus mehreren Kindheitsfreunden und Grundschülern, die die Grenzen des Spiels in gewisser Weise überschritten haben. Aufgrund eines tödlichen Unfalls wurde „Union“ vom Netz genommen. Sechs Jahre später loggte sich der Oberschüler in das neue „Reunion“ ein und traf auf eines der alten „Subaru“-Mitglieder: Asahi. Doch die Freude über das Wiedersehen hält nur kurz, denn sie sollte seit sechs Jahren tot sein. Ist sie eine Art digitaler Geist oder …
    [​IMG]
    Episoden:
    12/12
    Spieldauer: 24 Min.
    Publisher: Amazon
    Source: WebRip
    Format: MKV
    Video-Codec: x264
    Audio-Codec: AC3
    Sprache: Japanisch
    Untertitel: Deutsch, Englisch
    Auflösung: 1280x720 | 1920x1080
    Größe: ~350 MB | ~750 MB
    Code:
    Format                      : Matroska
    Format version              : Version 4 / Version 2
    File size                   : 344 MiB
    Duration                    : 24mn 9s
    Overall bit rate mode       : Variable
    Overall bit rate            : 1 992 Kbps
    Movie name                  : WebRip by Fuuko
    Encoded date                : UTC 2018-09-07 18:33:26
    Writing application         : mkvmerge v26.0.0 ('In The Game') 64-bit
    Writing library             : libebml v1.3.6 + libmatroska v1.4.9
    
    Video
    ID                          : 1
    Format                      : AVC
    Format/Info                 : Advanced Video Codec
    Format profile              : [email protected]
    Format settings, CABAC      : Yes
    Format settings, ReFrames   : 5 frames
    Codec ID                    : V_MPEG4/ISO/AVC
    Duration                    : 24mn 9s
    Bit rate mode               : Variable
    Bit rate                    : 1 767 Kbps
    Maximum bit rate            : 4 500 Kbps
    Width                       : 1 280 pixels
    Height                      : 720 pixels
    Display aspect ratio        : 16:9
    Frame rate mode             : Constant
    Frame rate                  : 23.976 (24000/1001) fps
    Color space                 : YUV
    Chroma subsampling          : 4:2:0
    Bit depth                   : 8 bits
    Scan type                   : Progressive
    Bits/(Pixel*Frame)          : 0.080
    Stream size                 : 305 MiB (89%)
    Default                     : Yes
    Forced                      : No
    Color range                 : Limited
    Color primaries             : BT.709
    Transfer characteristics    : BT.709
    Matrix coefficients         : BT.709
    
    Audio
    ID                          : 2
    Format                      : E-AC-3
    Format/Info                 : Audio Coding 3
    Format settings, Endianness : Big
    Codec ID                    : A_EAC3
    Duration                    : 24mn 9s
    Bit rate mode               : Constant
    Bit rate                    : 224 Kbps
    Channel(s)                  : 2 channels
    Channel positions           : Front: L R
    Sampling rate               : 48.0 KHz
    Frame rate                  : 187.500 fps (256 spf)
    Compression mode            : Lossy
    Stream size                 : 38.7 MiB (11%)
    Title                       : Japanese
    Language                    : Japanese
    Default                     : Yes
    Forced                      : No
    
    Text #1
    ID                          : 3
    Format                      : UTF-8
    Codec ID                    : S_TEXT/UTF8
    Codec ID/Info               : UTF-8 Plain Text
    Duration                    : 23mn 36s
    Bit rate                    : 58 bps
    Count of elements           : 306
    Stream size                 : 10.2 KiB (0%)
    Title                       : German [Full]
    Language                    : German
    Default                     : Yes
    Forced                      : No
    
    Text #2
    ID                          : 4
    Format                      : UTF-8
    Codec ID                    : S_TEXT/UTF8
    Codec ID/Info               : UTF-8 Plain Text
    Duration                    : 23mn 36s
    Bit rate                    : 58 bps
    Count of elements           : 320
    Stream size                 : 10.1 KiB (0%)
    Title                       : English [Full]
    Language                    : English
    Default                     : No
    Forced                      : No
    Code:
    Format                      : Matroska
    Format version              : Version 4 / Version 2
    File size                   : 753 MiB
    Duration                    : 24mn 9s
    Overall bit rate mode       : Variable
    Overall bit rate            : 4 355 Kbps
    Movie name                  : WebRip by Fuuko
    Encoded date                : UTC 2018-09-07 18:37:22
    Writing application         : mkvmerge v26.0.0 ('In The Game') 64-bit
    Writing library             : libebml v1.3.6 + libmatroska v1.4.9
    
    Video
    ID                          : 1
    Format                      : AVC
    Format/Info                 : Advanced Video Codec
    Format profile              : [email protected]
    Format settings, CABAC      : Yes
    Format settings, ReFrames   : 4 frames
    Codec ID                    : V_MPEG4/ISO/AVC
    Duration                    : 24mn 9s
    Bit rate mode               : Variable
    Bit rate                    : 4 129 Kbps
    Maximum bit rate            : 15.0 Mbps
    Width                       : 1 920 pixels
    Height                      : 1 080 pixels
    Display aspect ratio        : 16:9
    Frame rate mode             : Constant
    Frame rate                  : 23.976 (24000/1001) fps
    Color space                 : YUV
    Chroma subsampling          : 4:2:0
    Bit depth                   : 8 bits
    Scan type                   : Progressive
    Bits/(Pixel*Frame)          : 0.083
    Stream size                 : 714 MiB (95%)
    Default                     : Yes
    Forced                      : No
    Color range                 : Limited
    Color primaries             : BT.709
    Transfer characteristics    : BT.709
    Matrix coefficients         : BT.709
    
    Audio
    ID                          : 2
    Format                      : E-AC-3
    Format/Info                 : Audio Coding 3
    Format settings, Endianness : Big
    Codec ID                    : A_EAC3
    Duration                    : 24mn 9s
    Bit rate mode               : Constant
    Bit rate                    : 224 Kbps
    Channel(s)                  : 2 channels
    Channel positions           : Front: L R
    Sampling rate               : 48.0 KHz
    Frame rate                  : 187.500 fps (256 spf)
    Compression mode            : Lossy
    Stream size                 : 38.7 MiB (5%)
    Title                       : Japanese
    Language                    : Japanese
    Default                     : Yes
    Forced                      : No
    
    Text #1
    ID                          : 3
    Format                      : UTF-8
    Codec ID                    : S_TEXT/UTF8
    Codec ID/Info               : UTF-8 Plain Text
    Duration                    : 23mn 36s
    Bit rate                    : 58 bps
    Count of elements           : 306
    Stream size                 : 10.2 KiB (0%)
    Title                       : German [Full]
    Language                    : German
    Default                     : Yes
    Forced                      : No
    
    Text #2
    ID                          : 4
    Format                      : UTF-8
    Codec ID                    : S_TEXT/UTF8
    Codec ID/Info               : UTF-8 Plain Text
    Duration                    : 23mn 36s
    Bit rate                    : 58 bps
    Count of elements           : 320
    Stream size                 : 10.1 KiB (0%)
    Title                       : English [Full]
    Language                    : English
    Default                     : No
    Forced                      : No
    [​IMG]
    720p [​IMG]
    1080p [​IMG]

    Hidden Content:
    **Versteckter Inhalt: Du musst 'Gefällt mir' klicken, bevor du den Inhalt sehen kannst.**
     
    Zuletzt bearbeitet: 20 September 2018
    Tags:
    derEisige, Rjiu, prohit und 61 anderen gefällt das.
  2. Fuuko Otaku

    Fuuko
    ~ Episode 02 hinzugefügt ~
    Untertitel optisch verändert
     
    Zuletzt bearbeitet: 12 Juli 2018
    Porf1 gefällt das.
  3. Fuuko Otaku

    Fuuko
    ~ Episode 03 hinzugefügt ~
     
  4. Fuuko Otaku

    Fuuko
    ~ Episode 04 hinzugefügt ~
     
    madx gefällt das.
  5. Fuuko Otaku

    Fuuko
    ~ Episode 05 hinzugefügt ~

     
    madx gefällt das.
  6. Fuuko Otaku

    Fuuko
    ~ Episode 06 hinzugefügt ~
     
    madx gefällt das.
  7. Fuuko Otaku

    Fuuko
    ~ Episode 07 hinzugefügt ~
     
    madx gefällt das.
  8. Fuuko Otaku

    Fuuko
    ~ Episode 08 hinzugefügt ~

     
    madx gefällt das.
  9. Fuuko Otaku

    Fuuko
    ~ Episode 09 hinzugefügt ~
     
    madx gefällt das.
  10. Fuuko Otaku

    Fuuko
    ~ Episode 10 hinzugefügt ~
    Alle Episoden nun mit AC3 statt AAC Sound
     
    madx gefällt das.
  11. Fuuko Otaku

    Fuuko
    ~ Episode 11 hinzugefügt ~
     
    madx gefällt das.
  12. Fuuko Otaku

    Fuuko
    ~ Episode 12 hinzugefügt ~
    Staffel abgeschlossen
     
    madx gefällt das.
Die Seite wird geladen...