1. Willkommen beim WoH Board. Um Beiträge zu verfassen, musst du dich kostenlos registrieren.

[Biete] Tsugumomo [Ger-Jap-Dub][Ger-Sub][408p|720p|1080p][08/12][BluRay] - AST4u

Dieses Thema im Forum "Ger Dub" wurde erstellt von Fuuko, 10 Juli 2018.

  1. Fuuko Otaku

    Fuuko
    Tsugumomo
    [​IMG]

    [​IMG]
    Kazuya ist ein Schüler, welcher einen Gegenstand ganz besonders schätzt: den Stoffgürtel, den ihm seine Mutter gegeben hat. Er trägt ihn immer mit sich herum und es wäre eine Katastrophe für ihn, wenn er den Gürtel verlieren würde. Als er sich eines Tages während der Mittagspause auf dem Dach der Schule entspannt und an seinem Gürtel schnüffelt, wird er plötzlich von einer Perücke angegriffen und fällt vom Schuldach. Jedoch wird er von einem Mädchen in einem Kimino, namens Kiriha, aufgefangen. Diese rettet Kazuya unter der Bedingung, dass er von nun an ihr Diener sei. In seiner Notlage sieht er sich gezwungen zuzustimmen und so besiegt Kiriha die Perücke. Nach dem Kampf jedoch verschwindet Kiriha und mit ihr Kazuyas Stoffgürtel.
    [​IMG]
    Episoden: 08/12
    Spieldauer: 24 Min.
    Source: BluRay
    Release-Crew: AST4u
    Format: AVI/MKV
    Sprache: Deutsch / Japanisch
    Untertitel: Deutsch
    Auflösung: 408p | 720p | 1080p AC3 | 1080p DTS
    Größe: 300MB | 750MB | 1800MB | 2600MB
    Parts: je 1000 MB
    Code:
    Format                      : Matroska
    Format version              : Version 4 / Version 2
    File size                   : 283 MiB
    Duration                    : 23mn 44s
    Overall bit rate            : 1 669 Kbps
    Encoded date                : UTC 2018-07-10 15:17:33
    Writing application         : mkvmerge v19.0.0 ('Brave Captain') 64-bit
    Writing library             : libebml v1.3.5 + libmatroska v1.4.8
    
    Video
    ID                          : 1
    Format                      : MPEG-4 Visual
    Format profile              : Advanced [email protected]
    Format settings, BVOP       : 1
    Format settings, QPel       : No
    Format settings, GMC        : No warppoints
    Format settings, Matrix     : Default (MPEG)
    Codec ID                    : V_MS/VFW/FOURCC / XVID
    Codec ID/Hint               : XviD
    Duration                    : 23mn 44s
    Bit rate                    : 1 257 Kbps
    Width                       : 720 pixels
    Height                      : 408 pixels
    Display aspect ratio        : 16:9
    Frame rate mode             : Constant
    Frame rate                  : 23.976 (24000/1001) fps
    Color space                 : YUV
    Chroma subsampling          : 4:2:0
    Bit depth                   : 8 bits
    Scan type                   : Progressive
    Compression mode            : Lossy
    Bits/(Pixel*Frame)          : 0.178
    Stream size                 : 213 MiB (75%)
    Writing library             : XviD 67
    Default                     : Yes
    Forced                      : No
    
    Audio #1
    ID                          : 2
    Format                      : MPEG Audio
    Format version              : Version 1
    Format profile              : Layer 3
    Mode                        : Joint stereo
    Mode extension              : MS Stereo
    Codec ID                    : A_MPEG/L3
    Codec ID/Hint               : MP3
    Duration                    : 23mn 44s
    Bit rate mode               : Constant
    Bit rate                    : 192 Kbps
    Channel(s)                  : 2 channels
    Sampling rate               : 48.0 KHz
    Frame rate                  : 41.667 fps (1152 spf)
    Compression mode            : Lossy
    Stream size                 : 32.6 MiB (12%)
    Writing library             : LAME3.100º
    Language                    : German
    Default                     : Yes
    Forced                      : No
    
    Audio #2
    ID                          : 3
    Format                      : MPEG Audio
    Format version              : Version 1
    Format profile              : Layer 3
    Mode                        : Joint stereo
    Mode extension              : MS Stereo
    Codec ID                    : A_MPEG/L3
    Codec ID/Hint               : MP3
    Duration                    : 23mn 44s
    Bit rate mode               : Constant
    Bit rate                    : 192 Kbps
    Channel(s)                  : 2 channels
    Sampling rate               : 48.0 KHz
    Frame rate                  : 41.667 fps (1152 spf)
    Compression mode            : Lossy
    Stream size                 : 32.6 MiB (12%)
    Writing library             : LAME3.100º
    Language                    : Japanese
    Default                     : No
    Forced                      : No
    
    Text
    ID                          : 4
    Format                      : PGS
    Muxing mode                 : zlib
    Codec ID                    : S_HDMV/PGS
    Codec ID/Info               : Picture based subtitle format used on BDs/HD-DVDs
    Duration                    : 23mn 27s
    Bit rate                    : 38.7 Kbps
    Count of elements           : 525
    Stream size                 : 6.50 MiB (2%)
    Language                    : German
    Default                     : Yes
    Forced                      : No
    Code:
    Format                      : Matroska
    Format version              : Version 4 / Version 2
    File size                   : 740 MiB
    Duration                    : 23mn 44s
    Overall bit rate            : 4 358 Kbps
    Encoded date                : UTC 2018-07-10 15:20:22
    Writing application         : mkvmerge v19.0.0 ('Brave Captain') 64-bit
    Writing library             : libebml v1.3.5 + libmatroska v1.4.8
    Writing frontend            : StaxRip v1.7.0.0
    
    Video
    ID                          : 1
    Format                      : AVC
    Format/Info                 : Advanced Video Codec
    Format profile              : [email protected]
    Format settings, CABAC      : Yes
    Format settings, ReFrames   : 5 frames
    Codec ID                    : V_MPEG4/ISO/AVC
    Duration                    : 23mn 44s
    Bit rate                    : 3 433 Kbps
    Width                       : 1 280 pixels
    Height                      : 720 pixels
    Display aspect ratio        : 16:9
    Frame rate mode             : Constant
    Frame rate                  : 23.976 (24000/1001) fps
    Color space                 : YUV
    Chroma subsampling          : 4:2:0
    Bit depth                   : 8 bits
    Scan type                   : Progressive
    Bits/(Pixel*Frame)          : 0.155
    Stream size                 : 583 MiB (79%)
    Writing library             : x264 core 152 r2851 ba24899
    Encoding settings           : cabac=1 / ref=5 / deblock=1:0:0 / analyse=0x3:0x133 / me=umh / subme=9 / psy=1 / psy_rd=0.70:0.10 / mixed_ref=1 / me_range=32 / chroma_me=1 / trellis=2 / 8x8dct=1 / cqm=0 / deadzone=21,11 / fast_pskip=0 / chroma_qp_offset=-3 / threads=22 / lookahead_threads=2 / sliced_threads=0 / nr=0 / decimate=0 / interlaced=0 / bluray_compat=0 / constrained_intra=0 / bframes=5 / b_pyramid=2 / b_adapt=2 / b_bias=0 / direct=3 / weightb=1 / open_gop=0 / weightp=2 / keyint=250 / keyint_min=25 / scenecut=40 / intra_refresh=0 / rc_lookahead=48 / rc=crf / mbtree=1 / crf=16.0 / qcomp=0.70 / qpmin=0 / qpmax=69 / qpstep=4 / ip_ratio=1.40 / aq=3:1.00
    Default                     : Yes
    Forced                      : No
    Color range                 : Limited
    Matrix coefficients         : BT.709
    
    Audio #1
    ID                          : 2
    Format                      : AC-3
    Format/Info                 : Audio Coding 3
    Mode extension              : CM (complete main)
    Format settings, Endianness : Big
    Codec ID                    : A_AC3
    Duration                    : 23mn 44s
    Bit rate mode               : Constant
    Bit rate                    : 448 Kbps
    Channel(s)                  : 6 channels
    Channel positions           : Front: L C R, Side: L R, LFE
    Sampling rate               : 48.0 KHz
    Frame rate                  : 31.250 fps (1536 spf)
    Compression mode            : Lossy
    Stream size                 : 76.1 MiB (10%)
    Language                    : German
    Default                     : No
    Forced                      : No
    
    Audio #2
    ID                          : 3
    Format                      : AC-3
    Format/Info                 : Audio Coding 3
    Mode extension              : CM (complete main)
    Format settings, Endianness : Big
    Codec ID                    : A_AC3
    Duration                    : 23mn 44s
    Bit rate mode               : Constant
    Bit rate                    : 448 Kbps
    Channel(s)                  : 2 channels
    Channel positions           : Front: L R
    Sampling rate               : 48.0 KHz
    Frame rate                  : 31.250 fps (1536 spf)
    Compression mode            : Lossy
    Stream size                 : 76.1 MiB (10%)
    Language                    : Japanese
    Default                     : No
    Forced                      : No
    
    Text
    ID                          : 4
    Format                      : PGS
    Muxing mode                 : zlib
    Codec ID                    : S_HDMV/PGS
    Codec ID/Info               : Picture based subtitle format used on BDs/HD-DVDs
    Duration                    : 23mn 27s
    Bit rate                    : 38.7 Kbps
    Count of elements           : 525
    Stream size                 : 6.50 MiB (1%)
    Language                    : German
    Default                     : No
    Forced                      : No
    Code:
    Format                      : Matroska
    Format version              : Version 4 / Version 2
    File size                   : 1.69 GiB
    Duration                    : 23mn 44s
    Overall bit rate            : 10.2 Mbps
    Encoded date                : UTC 2018-07-10 15:24:44
    Writing application         : mkvmerge v19.0.0 ('Brave Captain') 64-bit
    Writing library             : libebml v1.3.5 + libmatroska v1.4.8
    Writing frontend            : StaxRip v1.7.0.0
    
    Video
    ID                          : 1
    Format                      : AVC
    Format/Info                 : Advanced Video Codec
    Format profile              : [email protected]
    Format settings, CABAC      : Yes
    Format settings, ReFrames   : 5 frames
    Codec ID                    : V_MPEG4/ISO/AVC
    Duration                    : 23mn 44s
    Bit rate                    : 9 253 Kbps
    Width                       : 1 920 pixels
    Height                      : 1 080 pixels
    Display aspect ratio        : 16:9
    Frame rate mode             : Constant
    Frame rate                  : 23.976 (24000/1001) fps
    Color space                 : YUV
    Chroma subsampling          : 4:2:0
    Bit depth                   : 8 bits
    Scan type                   : Progressive
    Bits/(Pixel*Frame)          : 0.186
    Stream size                 : 1.53 GiB (91%)
    Writing library             : x264 core 152 r2851 ba24899
    Encoding settings           : cabac=1 / ref=5 / deblock=1:0:0 / analyse=0x3:0x133 / me=umh / subme=9 / psy=1 / psy_rd=0.70:0.10 / mixed_ref=1 / me_range=32 / chroma_me=1 / trellis=2 / 8x8dct=1 / cqm=0 / deadzone=21,11 / fast_pskip=0 / chroma_qp_offset=-3 / threads=24 / lookahead_threads=2 / sliced_threads=0 / nr=0 / decimate=0 / interlaced=0 / bluray_compat=0 / constrained_intra=0 / bframes=5 / b_pyramid=2 / b_adapt=2 / b_bias=0 / direct=3 / weightb=1 / open_gop=0 / weightp=2 / keyint=250 / keyint_min=25 / scenecut=40 / intra_refresh=0 / rc_lookahead=48 / rc=crf / mbtree=1 / crf=16.0 / qcomp=0.70 / qpmin=0 / qpmax=69 / qpstep=4 / ip_ratio=1.40 / aq=3:1.00
    Default                     : Yes
    Forced                      : No
    Color range                 : Limited
    Matrix coefficients         : BT.709
    
    Audio #1
    ID                          : 2
    Format                      : AC-3
    Format/Info                 : Audio Coding 3
    Mode extension              : CM (complete main)
    Format settings, Endianness : Big
    Codec ID                    : A_AC3
    Duration                    : 23mn 44s
    Bit rate mode               : Constant
    Bit rate                    : 448 Kbps
    Channel(s)                  : 6 channels
    Channel positions           : Front: L C R, Side: L R, LFE
    Sampling rate               : 48.0 KHz
    Frame rate                  : 31.250 fps (1536 spf)
    Compression mode            : Lossy
    Stream size                 : 76.1 MiB (4%)
    Language                    : German
    Default                     : No
    Forced                      : No
    
    Audio #2
    ID                          : 3
    Format                      : AC-3
    Format/Info                 : Audio Coding 3
    Mode extension              : CM (complete main)
    Format settings, Endianness : Big
    Codec ID                    : A_AC3
    Duration                    : 23mn 44s
    Bit rate mode               : Constant
    Bit rate                    : 448 Kbps
    Channel(s)                  : 2 channels
    Channel positions           : Front: L R
    Sampling rate               : 48.0 KHz
    Frame rate                  : 31.250 fps (1536 spf)
    Compression mode            : Lossy
    Stream size                 : 76.1 MiB (4%)
    Language                    : Japanese
    Default                     : No
    Forced                      : No
    
    Text
    ID                          : 4
    Format                      : PGS
    Muxing mode                 : zlib
    Codec ID                    : S_HDMV/PGS
    Codec ID/Info               : Picture based subtitle format used on BDs/HD-DVDs
    Duration                    : 23mn 27s
    Bit rate                    : 38.7 Kbps
    Count of elements           : 525
    Stream size                 : 6.50 MiB (0%)
    Language                    : German
    Default                     : No
    Forced                      : No
    Code:
    Format                      : Matroska
    Format version              : Version 4 / Version 2
    File size                   : 2.51 GiB
    Duration                    : 23mn 44s
    Overall bit rate            : 15.2 Mbps
    Encoded date                : UTC 2018-07-10 15:25:47
    Writing application         : mkvmerge v19.0.0 ('Brave Captain') 64-bit
    Writing library             : libebml v1.3.5 + libmatroska v1.4.8
    Writing frontend            : StaxRip v1.7.0.0
    
    Video
    ID                          : 1
    Format                      : AVC
    Format/Info                 : Advanced Video Codec
    Format profile              : [email protected]
    Format settings, CABAC      : Yes
    Format settings, ReFrames   : 5 frames
    Codec ID                    : V_MPEG4/ISO/AVC
    Duration                    : 23mn 44s
    Bit rate                    : 9 253 Kbps
    Width                       : 1 920 pixels
    Height                      : 1 080 pixels
    Display aspect ratio        : 16:9
    Frame rate mode             : Constant
    Frame rate                  : 23.976 (24000/1001) fps
    Color space                 : YUV
    Chroma subsampling          : 4:2:0
    Bit depth                   : 8 bits
    Scan type                   : Progressive
    Bits/(Pixel*Frame)          : 0.186
    Stream size                 : 1.53 GiB (61%)
    Writing library             : x264 core 152 r2851 ba24899
    Encoding settings           : cabac=1 / ref=5 / deblock=1:0:0 / analyse=0x3:0x133 / me=umh / subme=9 / psy=1 / psy_rd=0.70:0.10 / mixed_ref=1 / me_range=32 / chroma_me=1 / trellis=2 / 8x8dct=1 / cqm=0 / deadzone=21,11 / fast_pskip=0 / chroma_qp_offset=-3 / threads=24 / lookahead_threads=2 / sliced_threads=0 / nr=0 / decimate=0 / interlaced=0 / bluray_compat=0 / constrained_intra=0 / bframes=5 / b_pyramid=2 / b_adapt=2 / b_bias=0 / direct=3 / weightb=1 / open_gop=0 / weightp=2 / keyint=250 / keyint_min=25 / scenecut=40 / intra_refresh=0 / rc_lookahead=48 / rc=crf / mbtree=1 / crf=16.0 / qcomp=0.70 / qpmin=0 / qpmax=69 / qpstep=4 / ip_ratio=1.40 / aq=3:1.00
    Default                     : Yes
    Forced                      : No
    Color range                 : Limited
    Matrix coefficients         : BT.709
    
    Audio #1
    ID                          : 2
    Format                      : DTS
    Format/Info                 : Digital Theater Systems
    Format profile              : MA / Core
    Mode                        : 16
    Format settings, Endianness : Big
    Codec ID                    : A_DTS
    Duration                    : 23mn 44s
    Bit rate mode               : Variable / Constant
    Bit rate                    : 3 567 Kbps / 1 509 Kbps
    Channel(s)                  : 6 channels
    Channel positions           : Front: L C R, Side: L R, LFE
    Sampling rate               : 48.0 KHz
    Frame rate                  : 93.750 fps (512 spf)
    Bit depth                   : 24 bits
    Compression mode            : Lossless / Lossy
    Stream size                 : 605 MiB (24%)
    Language                    : German
    Default                     : Yes
    Forced                      : No
    
    Audio #2
    ID                          : 3
    Format                      : PCM
    Codec ID                    : A_PCM/INT/LIT
    Duration                    : 23mn 44s
    Bit rate mode               : Constant
    Bit rate                    : 2 304 Kbps
    Channel(s)                  : 2 channels
    Sampling rate               : 48.0 KHz
    Frame rate                  : 200.000 fps (240 spf)
    Bit depth                   : 24 bits
    Stream size                 : 391 MiB (15%)
    Language                    : Japanese
    Default                     : No
    Forced                      : No
    
    Text
    ID                          : 4
    Format                      : PGS
    Muxing mode                 : zlib
    Codec ID                    : S_HDMV/PGS
    Codec ID/Info               : Picture based subtitle format used on BDs/HD-DVDs
    Duration                    : 23mn 27s
    Bit rate                    : 38.7 Kbps
    Count of elements           : 525
    Stream size                 : 6.50 MiB (0%)
    Language                    : German
    Default                     : No
    Forced                      : No
    [​IMG]
    MP3.BluRay.Xvid-AST4u [​IMG]
    AC3.720p.BluRay.x264-AST4u [​IMG]
    AC3.1080p.BluRay.x264-AST4u [​IMG]
    DTS.1080p.BluRay.x264-AST4u [​IMG]

    Hidden Content:
    **Versteckter Inhalt: Du musst 'Gefällt mir' klicken, bevor du den Inhalt sehen kannst.**
     
    Zuletzt bearbeitet: 22 August 2018
    Tags:
    Tropf, Coji, diablofan2 und 25 anderen gefällt das.
  2. Fuuko Otaku

    Fuuko
    ~ E05 - E08 hinzugefügt ~
     
Die Seite wird geladen...