1. Willkommen beim WoH Board. Um Beiträge zu verfassen, musst du dich kostenlos registrieren.

[Biete] World Witches Series: 501 Butai Hasshin Shimasu! | Strike Witches 501st Joint Fighter Wing Take Off! [Jap-Dub][Ger-Sub][720p|1080p Plus][04/12][WebRip] - [email protected]

Dieses Thema im Forum "Ger Sub" wurde erstellt von [email protected], 9 April 2019.

  1. [email protected] Otakuholic

    Ta@
    World Witches Series: 501 Butai Hasshin Shimasu!
    Strike Witches 501st Joint Fighter Wing Take Off!
    Strike Witches 501st Unit, Taking Off!

    [​IMG]
    [​IMG]

    In World Witches Series: 501 Butai Hasshin Shimasu!, der Anime-Adaption zum gleichnamigen Manga, folgen wir den altbekannten Strike Witches rund um Minna Wilcke und Mio Sakamoto, doch diesmal stehen nicht etwa die Luftkämpfe und die Invasion der Neuroi im Mittelpunkt, sondern die Abklingzeit der Damen zwischen den Missionen. Denn wenn gerade mal kein Kampf ums Überleben ansteht, müssen auch Fliegerasse sich mit alltäglichen Aufgaben wie dem Kochen, Putzen oder dem Wäschewaschen rumärgern, selbst wenn die eine oder andere der Witches davon gar nicht so viel hält …

    Folgen: 4/12
    Größe pro Folge: ~190 MB/~770 MB
    Folgendauer: ~14 Min
    Releaser: [email protected]
    Art: Lizenzrelease
    Sprache: Japanisch
    Untertitel: Deutsch
    Jahr: 2019
    Genres: Action, Ecchi, Komödie, Scifi
    Auflösung: 1280x720/1920x1080
    Format: MKV
    Quelle: WebRip
    Videocodec: x264
    Farbtiefe: 8Bit
    Audiocodec: AAC
    Publisher: Anime-on-Demand
    Hoster: Share-Online

    [​IMG]
    Code:
    General Complete name : [[email protected]]Strike_Witches_501st_Joint_Fighter_Wing_Take_Off_01_[Web,720p,AAC].mkv Format : Matroska Format version : Version 4 File size : 190 MiB Duration : 13 min 30 s Overall bit rate : 1 969 kb/s Encoded date : UTC 2019-04-09 17:17:19 Writing application : mkvmerge v10.0.0 ('To Drown In You') 64bit Writing library : libebml v1.3.4 + libmatroska v1.4.5 Attachments : font.ttf Video ID : 1 Format : AVC Format/Info : Advanced Video Codec Format profile : [email protected] Format settings : CABAC / 9 Ref Frames Format settings, CABAC : Yes Format settings, RefFrames : 9 frames Codec ID : V_MPEG4/ISO/AVC Duration : 13 min 30 s Bit rate : 1 709 kb/s Width : 1 280 pixels Height : 720 pixels Display aspect ratio : 16:9 Frame rate mode : Variable Frame rate : 23.976 FPS Color space : YUV Chroma subsampling : 4:2:0 Bit depth : 8 bits Scan type : Progressive Bits/(Pixel*Frame) : 0.077 Stream size : 165 MiB (87%) Writing library : x264 core 157 r2969 d4099dd Encoding settings : cabac=1 / ref=9 / deblock=1:0:-1 / analyse=0x3:0x133 / me=umh / subme=10 / psy=1 / psy_rd=0.60:0.10 / mixed_ref=1 / me_range=24 / chroma_me=1 / trellis=2 / 8x8dct=1 / cqm=0 / deadzone=21,11 / fast_pskip=1 / chroma_qp_offset=-3 / threads=12 / lookahead_threads=3 / sliced_threads=0 / nr=0 / decimate=0 / interlaced=0 / bluray_compat=0 / constrained_intra=0 / bframes=16 / b_pyramid=2 / b_adapt=2 / b_bias=0 / direct=3 / weightb=1 / open_gop=0 / weightp=2 / keyint=192 / keyint_min=19 / scenecut=0 / intra_refresh=0 / rc_lookahead=80 / rc=crf / mbtree=1 / crf=17.0 / qcomp=0.60 / qpmin=0 / qpmax=69 / qpstep=4 / vbv_maxrate=4096 / vbv_bufsize=10240 / crf_max=0.0 / nal_hrd=none / filler=0 / ip_ratio=1.40 / aq=3:1.10 Default : Yes Forced : No Audio ID : 2 Format : AAC LC Format/Info : Advanced Audio Codec Low Complexity Codec ID : A_AAC-2 Duration : 13 min 30 s Bit rate : 256 kb/s Channel(s) : 2 channels Channel layout : L R Sampling rate : 48.0 kHz Frame rate : 46.875 FPS (1024 SPF) Compression mode : Lossy Delay relative to video : -83 ms Stream size : 24.7 MiB (13%) Default : Yes Forced : No ​
    Code:
    General Complete name : [[email protected]]Strike_Witches_501st_Joint_Fighter_Wing_Take_Off_01_[Web,1080pPlus,AAC].mkv Format : Matroska Format version : Version 4 File size : 771 MiB Duration : 13 min 30 s Overall bit rate : 7 972 kb/s Encoded date : UTC 2019-04-09 17:17:25 Writing application : mkvmerge v10.0.0 ('To Drown In You') 64bit Writing library : libebml v1.3.4 + libmatroska v1.4.5 Attachments : font.ttf Video ID : 1 Format : AVC Format/Info : Advanced Video Codec Format profile : [email protected] Format settings : CABAC / 12 Ref Frames Format settings, CABAC : Yes Format settings, RefFrames : 12 frames Codec ID : V_MPEG4/ISO/AVC Duration : 13 min 30 s Bit rate : 7 713 kb/s Width : 1 920 pixels Height : 1 080 pixels Display aspect ratio : 16:9 Frame rate mode : Variable Frame rate : 23.976 FPS Color space : YUV Chroma subsampling : 4:2:0 Bit depth : 8 bits Scan type : Progressive Bits/(Pixel*Frame) : 0.155 Stream size : 745 MiB (97%) Writing library : x264 core 157 r2969 d4099dd Encoding settings : cabac=1 / ref=12 / deblock=1:0:-1 / analyse=0x3:0x133 / me=umh / subme=10 / psy=1 / psy_rd=0.70:0.15 / mixed_ref=1 / me_range=24 / chroma_me=1 / trellis=2 / 8x8dct=1 / cqm=0 / deadzone=21,11 / fast_pskip=1 / chroma_qp_offset=-3 / threads=24 / lookahead_threads=6 / sliced_threads=0 / nr=0 / decimate=0 / interlaced=0 / bluray_compat=0 / constrained_intra=0 / bframes=16 / b_pyramid=2 / b_adapt=2 / b_bias=0 / direct=3 / weightb=1 / open_gop=0 / weightp=2 / keyint=192 / keyint_min=19 / scenecut=0 / intra_refresh=0 / rc_lookahead=80 / rc=crf / mbtree=1 / crf=15.0 / qcomp=0.60 / qpmin=0 / qpmax=69 / qpstep=4 / vbv_maxrate=20480 / vbv_bufsize=40960 / crf_max=0.0 / nal_hrd=none / filler=0 / ip_ratio=1.40 / aq=3:1.10 Default : Yes Forced : No Audio ID : 2 Format : AAC LC Format/Info : Advanced Audio Codec Low Complexity Codec ID : A_AAC-2 Duration : 13 min 30 s Bit rate : 256 kb/s Channel(s) : 2 channels Channel layout : L R Sampling rate : 48.0 kHz Frame rate : 46.875 FPS (1024 SPF) Compression mode : Lossy Delay relative to video : -83 ms Stream size : 24.7 MiB (3%) Default : Yes Forced : No ​

    Anmerkung:
    Die Untertitel sind im Video eingebrannt.

    720p:[​IMG]1080p:[​IMG]

    Hidden Content:
    **Versteckter Inhalt: Du musst 'Gefällt mir' klicken, bevor du den Inhalt sehen kannst.**
     
    Zuletzt bearbeitet: 2 Mai 2019
    Tags:
  2. [email protected] Otakuholic

    Ta@
    ~Folge 2 online~
     
    madx gefällt das.
  3. [email protected] Otakuholic

    Ta@
    ~Folgen bis 4 online~
     
    madx gefällt das.
Die Seite wird geladen...